<?xml version="1.0" standalone="no"?>
<!DOCTYPE svg PUBLIC "-//W3C//DTD SVG 1.1//EN" "http://www.w3.org/Graphics/SVG/1.1/DTD/svg11.dtd" >
<svg xmlns="http://www.w3.org/2000/svg">
<metadata></metadata>
<defs>
<font id="booregular" horiz-adv-x="1247" >
<font-face units-per-em="2048" ascent="1638" descent="-410" />
<missing-glyph horiz-adv-x="1476" />
<glyph horiz-adv-x="2048" />
<glyph horiz-adv-x="2048" />
<glyph unicode="&#xd;" horiz-adv-x="1476" />
<glyph unicode=" "  horiz-adv-x="1476" />
<glyph unicode="&#x09;" horiz-adv-x="1476" />
<glyph unicode="&#xa0;" horiz-adv-x="1476" />
<glyph unicode="!" horiz-adv-x="720" d="M249 348q0 46 35 84l33 20l68 7l72 -63l10 -72q-18 -60 -88 -82l-46 3q-66 6 -82 82zM301 683v1398q0 55 55 55t55 -55v-1398q0 -55 -55 -55t-55 55z" />
<glyph unicode="&#x22;" horiz-adv-x="995" d="M317 1908q0 128 30 157l23 22q10 10 31 10q19 0 29 -11l24 -22q20 -17 20 -138q0 -44 -2.5 -139.5t-2.5 -127.5q0 -73 -8.5 -166.5t-23.5 -205.5q-19 -16 -38 -16q-18 0 -34 16q-29 196 -33 235q-7 65 -7 123t-2 108q-6 149 -6 155zM793 1915q0 130 28 157q30 25 54 25 q20 0 29 -9l24 -20q20 -18 20 -138q0 -56 -1 -88q-5 -159 -5 -181q0 -76 -8 -159t-25 -215q-9 -9 -18 -13t-17 -4q-18 0 -35 17q-18 117 -27 192q-12 101 -12 169q0 65 -3.5 158.5t-3.5 108.5z" />
<glyph unicode="'" horiz-adv-x="1342" d="M671 1543l552 415l56 -74l-553 -415z" />
<glyph unicode="(" horiz-adv-x="924" d="M312 1069q0 669 484 1324q6 1 17 1q47 0 60 -49q-75 -129 -111.5 -198t-59.5 -124q-199 -454 -199 -956q0 -163 22 -324t67 -319q89 -313 288 -650q-11 -39 -47 -39q-17 0 -37 7q-231 297 -351 625q-133 354 -133 702z" />
<glyph unicode=")" horiz-adv-x="924" d="M312 -226q195 334 286 651.5t91 641.5q0 504 -199 956q-25 58 -61 124q-23 43 -45.5 84t-64.5 114q10 49 60 49q11 0 17 -1q242 -329 363 -659t121 -665q0 -351 -133 -702q-120 -326 -351 -625q-13 -4 -21 -6t-17 -2q-36 0 -46 40z" />
<glyph unicode="+" horiz-adv-x="1820" d="M678 1140q0 27 42 54h420v222v222q25 22 51 22q25 0 56 -22v-444h210h210q33 -26 33 -53t-33 -57h-420v-224v-222q-26 -23 -52 -23t-55 23v446h-210h-210q-42 29 -42 56z" />
<glyph unicode="," horiz-adv-x="682" d="M243 -128l33 71q25 54 52 125q22 61 31 121l1 12v7q0 32 -27 37q-66 6 -82 82l-2 21q0 46 35 84l33 20l33 3h16l19 4q42 -15 66 -63l2 -20l5 -16l9 -36q0 -285 -224 -452z" />
<glyph unicode="-" d="M174 745q0 55 34 55h875q34 0 34 -55t-34 -55h-875q-34 0 -34 55z" />
<glyph unicode="." horiz-adv-x="590" d="M249 348q0 46 35 84l33 20l68 7l72 -63l10 -72q-18 -60 -88 -82l-46 3q-66 6 -82 82z" />
<glyph unicode="0" horiz-adv-x="1153" d="M215 855v584q0 197 24 313q29 161 124 270q130 154 295 154q240 0 355 -256q86 -193 86 -463v-611q0 -300 -74 -447q-44 -89 -70 -123q-138 -153 -298 -153q-159 0 -273.5 125t-150.5 318q-18 108 -18 289zM334 812q0 -205 65 -344q81 -178 258 -178q117 0 199 89 q72 81 99 213q11 58 17 113.5t6 101.5v679q0 242 -84 379q-89 140 -236 140q-181 0 -262 -182q-62 -139 -62 -340v-671z" />
<glyph unicode="1" horiz-adv-x="1151" d="M402 1266q0 27 23 62l406 686q55 94 100 141q34 31 79 31l13 -1l18 -1q50 -4 56 -53v-1964q0 -8 -8 -24q-19 -25 -52 -25q-56 0 -56 47v1687q0 120 -15 122q-18 0 -77 -95l-139 -240l-218 -380q-28 -49 -70 -49q-15 0 -30 8q-30 17 -30 48z" />
<glyph unicode="2" horiz-adv-x="1148" d="M220 177q0 28 25 76l179 289l178 291q228 379 299 590q51 147 51 272q0 104 -38 165q-92 146 -225 167q-21 4 -35.5 4.5t-22.5 0.5q-136 0 -207 -101.5t-71 -302.5q0 -7 -9 -21q-18 -23 -53 -23q-56 0 -71 47q0 121 27 213.5t77 152.5q80 101 159 145q44 23 92.5 33.5 t106.5 10.5q99 0 198 -63q86 -58 132 -137q82 -143 82 -317q0 -122 -41 -254q-28 -89 -557 -1052q-6 -13 -13 -31q-3 -9 -4 -11l1 -11l1 -17q0 -39 61 -39h506q46 -15 46 -61q0 -47 -48 -74h-729q-103 0 -97 58z" />
<glyph unicode="3" horiz-adv-x="1153" d="M222 765q0 64 58 64q36 0 56 -30q8 -17 10 -34l3 -107l4 -107q15 -118 89 -188q106 -95 235 -95q36 0 67.5 7t69.5 25q172 81 172 442q0 352 -432 352q-61 0 -61 68q0 56 63 68q430 0 430 343q0 360 -172 442q-68 33 -139 33q-128 0 -233 -96q-66 -60 -89 -222 q-4 -35 -5.5 -77.5t-1.5 -57.5v-42q-12 -44 -65 -44t-59 42q0 290 61 393q74 122 177 179.5t238 57.5q91 0 164.5 -46t132.5 -135q104 -160 104 -376q0 -307 -226 -469q226 -161 226 -464q0 -218 -104 -375q-58 -87 -133 -134t-164 -47q-136 0 -235 55q-104 58 -178 182 q-26 42 -42 90t-16 101l-3 62z" />
<glyph unicode="4" horiz-adv-x="1151" d="M218 2144l2 16q3 26 56 26q38 0 45 -26v-792v-64l1 -34q0 -19 5.5 -35t15.5 -27q15 -20 54 -20l20 -1l54 -1h515v971q9 29 60 29q45 0 51 -27v-2009q-12 -31 -55 -31q-50 0 -56 24v912h-677q-89 0 -89 93z" />
<glyph unicode="5" horiz-adv-x="1157" d="M218 514q0 14 5 27q9 25 50 25q51 0 51 -54l8 -29q3 -11 5 -14.5t4.5 -7t4.5 -11.5l14 -71q6 -33 25 -58q59 -82 200 -82h26h37q67 0 126 32.5t113 100.5q114 144 114 352q0 34 -4 70.5t-13 74.5q-30 144 -140 218q-93 60 -223 60q-43 0 -86.5 -7t-87.5 -22 q-85 -29 -123 -70q-16 -16 -36 -16q-26 0 -48 19.5t-22 45.5v968q0 121 121 121h731q27 -5 27 -39q0 -46 -27 -51h-645q-115 0 -115 -108v-788q76 29 155.5 45t153.5 16q149 0 257 -61.5t149 -124.5q48 -75 69 -227q8 -54 8 -99q0 -222 -114 -408q-63 -103 -176.5 -161.5 t-228.5 -58.5q-154 0 -252 94q-113 105 -113 299z" />
<glyph unicode="6" horiz-adv-x="1157" d="M216 619q0 149 67 396q33 124 84 265l111 326l86 270l74 238q24 70 87 70q44 0 44 -29q0 -10 -7 -24l-341 -1088q169 119 309 119q144 0 253 -121q44 -49 65 -103q7 -23 18 -68l14 -58q10 -50 16 -98.5t6 -85.5q0 -199 -138 -348q-82 -88 -147 -123q-73 -38 -177 -38 q-84 0 -161 40q-52 27 -135 111q-128 123 -128 349zM336 643q0 -156 99 -274t232 -118q131 0 221.5 116.5t90.5 275.5q0 162 -75 273q-80 118 -210 118q-131 0 -244.5 -117t-113.5 -274z" />
<glyph unicode="7" horiz-adv-x="1149" d="M220 2130q0 56 43 56h708q90 0 107 -9.5t17 -40.5l-6 -46l-202 -890h140q14 0 14 -23q0 -10 -6 -24q-12 -58 -32 -58h-150l-198 -914q-39 -62 -82 -62q-50 0 -50 40q1 7 1 10l223 925h-174l-2 12q1 14 6 42q0 44 39 52h164l146 706l14 67q0 27 -4.5 42t-17.5 26 q-29 21 -109 21h-550q-39 -6 -39 68z" />
<glyph unicode="8" horiz-adv-x="1148" d="M220 619q0 150 73 289q84 158 243 247q-155 86 -245 246q-35 68 -53 140.5t-18 149.5q0 192 134 346t318 154q177 0 299.5 -152.5t122.5 -347.5q0 -147 -79.5 -295.5t-212.5 -242.5q132 -90 211 -238q81 -146 81 -296q0 -197 -123 -348.5t-299 -151.5q-183 0 -317.5 154 t-134.5 346zM350 614q0 -161 89 -272.5t221 -111.5q131 0 222.5 111t91.5 273q0 159 -94 299q-97 143 -210 143q-117 0 -218 -138q-102 -144 -102 -304zM350 1671q0 -162 100 -302t220 -140q113 0 208.5 140t95.5 302q0 161 -92.5 281t-219.5 120q-132 0 -222 -118 q-90 -119 -90 -283z" />
<glyph unicode="9" horiz-adv-x="1157" d="M237 1722q0 182 114 317q129 147 343 147q172 0 270 -80q83 -65 116 -178q22 -85 22 -211v-56v-77v-79v-55v-1295q0 -6 -8 -17q-18 -20 -50 -20q-61 0 -61 41v1192q-105 -105 -188 -124q-5 -1 -47 -5.5t-100 -4.5q-116 0 -197 36.5t-132 116.5q-82 129 -82 352zM350 1725 q0 -86 18 -155.5t64 -136.5q95 -136 228 -136q206 0 299 217q36 87 36 191q0 41 -6 88q-19 138 -114 221q-45 37 -102 55t-123 18q-64 0 -118 -30.5t-96 -87.5t-64 -116t-22 -128z" />
<glyph unicode=":" horiz-adv-x="691" d="M249 353l3 26q3 20 29.5 47t51.5 30l46 3q69 -21 88 -82l-10 -72l-72 -63l-68 6l-33 20q-35 40 -35 85zM249 1129l2 20q12 72 82 82l46 3q65 -18 88 -81l-10 -73l-72 -62l-68 6l-33 20q-35 38 -35 85z" />
<glyph unicode="=" horiz-adv-x="1801" d="M693 893q0 28 27 54h473h474q24 -27 24 -56q0 -28 -24 -58h-474h-473q-27 32 -27 60zM695 1396q0 29 25 54h473h474q24 -29 24 -57q0 -29 -24 -59h-474h-473q-25 32 -25 62z" />
<glyph unicode="?" horiz-adv-x="1304" d="M245 287v28v30q9 51 48 63q15 5 35 5t49 -9q36 -12 43 -44q3 -11 4 -16t1 -18q0 -48 -48 -84h-30h-29q-50 12 -73 45zM287 1949l178 127q75 43 147 52l68 6l76 2l32 -17q138 -20 220 -143q80 -157 80 -307l-3 -56q-18 -175 -109 -360q-117 -93 -224 -131 q-65 -21 -137 -21q-49 0 -90 7h-45l-60 -442l-119 18l22 263l23 263q9 14 102.5 21t279.5 7l73 45l115 166l22 139q9 63 9 117q0 63 -24.5 125.5t-78.5 128.5l-159 59q-86 0 -174 -75t-178 -132z" />
<glyph unicode="A" horiz-adv-x="1708" d="M256 266l529 1919l4 -7h134l-3 7l698 -1921l-124 1l-181 450h-809l-123 -449h-125zM520 820l760 1l-421 1194l-324 -1194z" />
<glyph unicode="B" horiz-adv-x="1401" d="M245 245v1890h518q55 0 83.5 -3t41.5 -5t41 -10q79 -21 166 -84q99 -76 152 -181q23 -47 34 -97t11 -96l-3 -27q0 -84 -40 -167t-132 -160l-13 -16l-47 -28l-34 -16l144 -87l84 -99q37 -68 60.5 -138t23.5 -125v-21q0 -73 -16 -141q-8 -38 -21.5 -69t-40.5 -71l-31 -43 q-33 -51 -103 -100l-22 -16l-112 -59l-18 -3q-58 -18 -110 -24l-108 -4h-94h-25h-43l-340 -3zM357 341q125 -17 221 -17q245 0 407 99q225 138 244 320v15l1 12q0 165 -193 301q-162 114 -482 114q-90 0 -195 -9zM358 1292q110 -11 210 -11q293 0 439 101q179 123 179 272 v15l-2 15q-18 165 -236 286q-134 74 -326 74q-58 0 -123.5 -7t-139.5 -22z" />
<glyph unicode="C" horiz-adv-x="1708" d="M320 1235q0 179 53 348q24 80 60 159t86 161l56 82q80 89 173.5 120t182.5 31q150 -15 270 -126l95 -104l25 -37l16 -35l3 -19l-54 -19l-16 -3l-38 -13l-42 63q-35 53 -91 89.5t-109 56.5t-103 20q-48 0 -96 -12q-68 -23 -130 -92l-4 -2q-129 -214 -164 -389l-27 -172 q-2 -14 -7.5 -65t-12.5 -127l-3 -22v-28v-16q0 -57 9 -113.5t28 -116.5q36 -114 111 -243l38 -63l10 -13l28 -33l47 -40q115 -92 211 -92h13h11q20 0 40 1t43 4t51 7t56 10l126 63l91 73q18 15 40 42q19 21 43 57q39 61 82 110l106 -47l-99 -142l-21 -29l-26 -28 q-19 -22 -66 -64l-69 -59l-19 -12l-19 -16l-35 -16l-106 -57l-29 -6q-51 -16 -90 -16l-89 -3l-10 4q-112 0 -244.5 70.5t-217.5 208.5q-85 165 -128 343q-39 174 -39 367z" />
<glyph unicode="D" horiz-adv-x="1588" d="M243 1183l2 953h378l60 3q137 0 299 -69q195 -83 282 -223l40 -51l25 -40l42 -75l9 -18l12 -13l55 -146l9 -30q34 -144 34 -283q0 -93 -15 -189q-36 -234 -198 -471l-128 -131l-51 -42l-18 -13l-19 -12l-70 -33l-27 -12l-15 -4q-29 -7 -58.5 -12t-83.5 -12.5t-120 -15.5 q-12 0 -45 1t-55 1q-47 0 -84.5 -1t-70.5 -2l-187 -1zM371 1985l1 -1619h423h13l42 1l27 6l80 35l55 27l61 52l42 33l97 121q123 169 149 325q12 81 12 168q0 72 -9 155l2 18l-33 145l-24 73l-37 98q-15 43 -57 100l-12 9l-40 40q-168 183 -313 202q-19 2 -51 5t-55 3 l-116 2h-77h-19z" />
<glyph unicode="E" horiz-adv-x="1224" d="M244 242l1 1894l921 -1l-1 -122h-808l-3 -718l810 1l-1 -116l-800 -3l2 -819l801 1l-3 -117h-919z" />
<glyph unicode="F" horiz-adv-x="1251" d="M244 2136l948 -1l-2 -134l-803 -4l-4 -689h719l-2 -156l-704 3l-3 -913h-148z" />
<glyph unicode="G" horiz-adv-x="1677" d="M245 1112v18q0 49 3 96t10 97q12 97 40 205q47 195 203 356l140 119q68 46 142 70t150 24q39 0 72.5 -5t73.5 -18q40 -11 74.5 -26t75.5 -39q78 -54 145 -133l30 -36l28 -40l5 -9l-98 -80l-66 75l-70 67q-66 65 -163 108q-54 15 -98 15l-28 -1q-28 -3 -54 -7.5t-65 -14.5 q-196 -93 -286 -256q-86 -159 -112 -313l-11 -95l-3 -102q0 -210 66 -431l5 -18l64 -128l9 -15l18 -27q75 -121 186 -169q48 -21 102 -30q28 -4 53.5 -6t58.5 -2l121 19l18 5q44 21 68 37q11 8 28.5 23.5t40.5 41.5q47 48 79 97.5t57 100.5q51 130 78 235q16 66 26 120.5 t10 96.5l-552 2l-1 145l680 -2q0 -49 -4 -101.5t-12 -106.5t-20 -117t-28 -128q-53 -239 -251 -445l-60 -51q-144 -91 -278 -91h-6q-112 0 -224.5 36t-228.5 154l-63 70l-18 27q-90 147 -123 291q-6 27 -13.5 70.5t-12.5 75.5t-8 71.5t-3 74.5z" />
<glyph unicode="H" horiz-adv-x="1392" d="M245 242v1894h130l1 -834l824 4l1 830l116 -1l9 -1893h-124l-4 929l-822 -1l-1 -928h-130z" />
<glyph unicode="I" horiz-adv-x="968" d="M244 366l269 -4l1 1644l-269 -4v134h677l-1 -125l-277 -4v-1644l277 1l1 -122h-677z" />
<glyph unicode="J" horiz-adv-x="1350" d="M245 737h132l18 -112q24 -79 89.5 -155t156.5 -97l73 -13h15l179 9l28 10l45 22l19 15q157 128 157 274l-2 1296h-910v149l915 1h126l-1 -1418q0 -55 -8 -103t-25 -88q-30 -69 -76 -127q-114 -119 -221 -138q-50 -9 -109 -15l-108 -5l-9 3q-44 0 -94.5 12.5t-52.5 14.5 l-37 13l-50 26l-49 30q-48 33 -91 88l-6 10q-52 70 -78 143t-26 155z" />
<glyph unicode="K" horiz-adv-x="1284" d="M245 243v1893h149l2 -854l721 854l100 -98l-742 -878l748 -815l-110 -96l-727 784l-1 -791z" />
<glyph unicode="L" horiz-adv-x="1223" d="M245 242v1893h136l-2 -1753h786v-140h-920z" />
<glyph unicode="M" horiz-adv-x="1812" d="M245 242v1894h170l565 -1574l542 1574h204l-2 -1894h-146v1550l-556 -1550h-79l-559 1523v-1523h-139z" />
<glyph unicode="N" horiz-adv-x="1487" d="M245 242v1894h160l895 -1603l-2 1602l119 -3v-1890h-90l-967 1716l1 -1716h-116z" />
<glyph unicode="O" horiz-adv-x="1801" d="M290 1310q0 122 51 256q23 60 57 124.5t80 134.5l22 31q58 73 132 128t147 87l19 6l19 9q92 25 168 25q176 0 347 -117l37 -24l13 -13l49 -46l21 -24l59 -80q43 -64 92 -170v-9l30 -64q57 -186 57 -370q0 -81 -12 -167q-36 -264 -223 -536q-50 -60 -108 -103l-56 -38 l-60 -34l-19 -6l-95 -43q-60 -21 -129 -21h-6q-97 0 -190 37q-46 18 -93 46.5t-94 66.5q-21 15 -39 33q-4 4 -17.5 18t-21.5 23l-64 83l-13 18l-18 28l-61 123l-3 16l-22 58q-16 57 -27.5 119.5t-20 149t-8.5 245.5zM385 1157q0 -136 46 -278q22 -68 58 -145t82 -152 q30 -36 62 -67.5t68 -55.5q74 -51 138 -77.5t122 -26.5l9 -3q105 0 203 52q48 25 97.5 66.5t97.5 97.5q119 155 172 309.5t53 311.5l3 21v16l-3 30q0 32 -6 65t-18 73l-24 85l-19 56q-39 111 -117 234l-86 98l-112 80q-109 62 -219 62q-18 0 -36.5 -1t-37.5 -4 q-36 -3 -82 -16l-19 -7l-56 -36l-31 -22q-22 -15 -49 -39l-52 -48q-46 -46 -83 -106q-79 -146 -121 -292q-20 -74 -30 -142.5t-10 -138.5z" />
<glyph unicode="P" horiz-adv-x="1325" d="M245 242v1894l343 4q88 0 157 -8q31 0 77 -7q24 -4 89 -16q175 -33 301 -219l25 -93q14 -48 25 -144q0 -164 -108 -302q-21 -30 -51 -51l-26 -20l-23 -21l-19 -12l-94 -43l-83 -18l-97 -9h-345h-56v-935h-115zM359 1277l100 4l115 -2l98 -2q107 0 164 6.5t94 30.5l7 2 l8 4l40 18l19 12q87 66 123.5 139t36.5 153l-3 22q0 63 -15 117l-25 50l-15 24l-15 21q-83 68 -159 103t-145 35q-23 0 -39 1q-78 5 -100 5q-45 0 -75.5 1.5t-71.5 4.5l-141 -13z" />
<glyph unicode="Q" horiz-adv-x="1620" d="M248 1169v30q0 44 3 89t10 94q14 94 40 190q48 184 211 374q11 15 57 54l54 48l11 3l77 41l18 6q79 29 163 29q54 0 114 -12l44 -17q35 -12 74 -32t81 -59l34 -24l37 -47l20 -24l14 -16l20 -21l14 -20q34 -54 67 -123l26 -60l25 -64q17 -55 29.5 -123t20.5 -141 q4 -46 7 -116t3 -142q0 -63 -11 -124.5t-36 -131.5q-41 -118 -124 -262l87 -135l91 -132l-89 -57l-162 225l-76 -78q-34 -31 -82 -61l-20 -14q-98 -54 -203 -54q-35 0 -64 3t-61 11q-60 14 -121 50q-126 74 -217 203l-17 25q-67 115 -108 239q-27 104 -45 188q-8 39 -12 91z M337 1190q0 -169 48 -339.5t187 -343.5l47 -47q118 -104 245 -104l37 -3l105 20l20 10l21 7q49 28 91 71l40 42l46 52l-129 176l86 73l105 -145l13 21q68 109 95 221l37 227l3 74q0 135 -36 302q-32 153 -128 307q-67 85 -139 149l-40 24q-45 27 -99.5 39.5t-110.5 12.5h-17 l-75 -10l-44 -20l-16 -4l-28 -13l-17 -10l-16 -14l-60 -51l-30 -31l-45 -54q-118 -160 -158 -318q-8 -37 -14.5 -72t-15 -100t-8.5 -149z" />
<glyph unicode="R" horiz-adv-x="1325" d="M245 242v1899l343 -1q88 0 157 -8q31 0 77 -7q24 -4 89 -16q175 -33 301 -219l25 -93q14 -48 25 -144q0 -164 -108 -302q-21 -30 -51 -51l-26 -20l-23 -21l-19 -12l-94 -43l-83 -18l402 -943h-118l-399 934h-327h-56v-935h-115zM359 1277l100 4l115 -2l98 -2 q107 0 164 6.5t94 30.5l7 2l8 4l40 18l19 12q87 66 123.5 139t36.5 153l-3 22q0 63 -15 117l-25 50l-15 24l-15 21q-83 68 -159 103t-145 35q-23 0 -39 1q-78 5 -100 5q-45 0 -75.5 1.5t-71.5 4.5l-141 -13z" />
<glyph unicode="S" horiz-adv-x="1303" d="M245 749l100 -3l29 -176l29 -73q74 -117 169 -134.5t183 -17.5l123 22l83 43l25 18l12 16l19 18q75 81 98 163q5 20 8 39q0 2 6 40l4 87l-31 115q-90 117 -202 156q-57 20 -107 47.5t-97 65.5l-170 85q-85 45 -163 131l-16 22l-24 58l-4 6v16q-15 65 -15 127 q0 156 98 299q83 112 191 162q50 23 103 34q24 5 52 8t56 3q43 0 82 -10q21 -5 42 -11t49 -17q87 -32 160 -122l12 -19q15 -22 25 -47q5 -12 10 -25.5t10 -28.5q9 -31 15 -64t6 -64v-24l-87 1l-33 133l-41 83l-15 13l-28 28q-62 64 -116 64l-125 6q-42 0 -81.5 -11.5 t-81.5 -34.5l-72 -59l-9 -3l-6 -6l-13 -16q-81 -75 -94 -152l-9 -83l-2 -74q0 -112 137 -203l189 -96q53 -29 88.5 -48t98.5 -52q70 -37 106 -55q161 -82 206 -260l9 -66l2 -31v-12l-2 -20q0 -106 -52.5 -222.5t-178.5 -201.5l-93 -46l-15 -3l-78 -17l-41 -3h-18l-18 2h-6 q-54 0 -110.5 6t-108.5 23q-113 30 -185 162q-47 79 -62.5 155.5t-24.5 153.5z" />
<glyph unicode="T" horiz-adv-x="1685" d="M245 2029v107l679 -3l340 1q56 0 169.5 1t171.5 1l-2 -103l-622 -1l-1 -1790h-106v1787h-629z" />
<glyph unicode="U" horiz-adv-x="1544" d="M293 1189v113l3 416l-1 418h117l-3 -452l2 -450l-2 -104v-29v-25v-21v-19v-16v-14v-12l-1 -43v-42q0 -89 3 -119t7 -52t10 -48q21 -101 119.5 -203.5t198.5 -122.5q40 -11 71 -15l70 -4q14 0 30.5 1t32 4t36 7t40.5 10q114 33 211 148q49 58 76.5 113.5t27.5 109.5 l18 496l1 451l-2 248l-2 203h112l2 -1006l-3 -267q0 -68 -7 -121q-3 -29 -8 -54.5t-14 -58.5q-30 -113 -156 -233l-47 -40l-9 -4l-119 -69l-16 -3l-19 -6l-38 -13l-44 -9l-159 -10l-166 38l-25 13l-44 19l-43 25q-38 23 -86 72l-72 85q-52 80 -76 167.5t-24 179.5l1 108 q0 18 1 54t1 55v16v15v12l-1 43q0 8 -0.5 18t-3.5 27z" />
<glyph unicode="V" horiz-adv-x="1768" d="M245 2135h122l99 -292l99 -284l100 -277l148 -417l148 -435l595 1705l128 1l-670 -1894h-107q-38 112 -80 231q-36 101 -86 240l-56 160q-16 45 -57 158q-18 48 -57 155l-112 315l-108 316z" />
<glyph unicode="W" horiz-adv-x="3155" d="M245 2135h122l99 -292l99 -284l100 -277q149 -408 297 -852l594 1705l128 1l-670 -1894h-107q-38 112 -80 231q-36 101 -86 240l-56 160q-16 45 -57 158q-18 48 -57 155l-112 315l-108 316zM1622 1960l62 176q65 -193 98 -289q44 -127 100 -284q35 -98 102 -280l99 -276 l99 -284l100 -293l595 1705l128 1l-670 -1894h-107l-106 304l-102 286l-100 267q-136 363 -298 861z" />
<glyph unicode="X" horiz-adv-x="1579" d="M245 245l565 965l-529 929h122l482 -816l465 816h132l-534 -929l556 -965l-116 -3l-502 848l-516 -845h-125z" />
<glyph unicode="Y" horiz-adv-x="1523" d="M245 2136h125l468 -817l479 817l134 -1l-553 -954l1 -939h-134l2 938z" />
<glyph unicode="Z" horiz-adv-x="1310" d="M245 242v132l847 1637h-847v125h999l4 -81l-879 -1696l863 1v-118h-987z" />
<glyph unicode="_" horiz-adv-x="2429" d="M85 85l2 185h2227v-183z" />
<glyph unicode="a" horiz-adv-x="1475" d="M-1 738q-3 2 17 31q34 49 61 88l123 171q101 124 237 169l19 6l24 6q55 13 106 13q91 0 174 -37q99 -48 157 -133l10 77v37l74 10l18 -4l-13 -348l-2 -141l2 -274q56 -69 110 -69l11 1q23 3 44 23l42 41l262 333l72 -48l-253 -337l-13 -15l-74 -66l-16 -8l-24 -10l-68 -6 q-64 0 -160 93q-24 33 -30 63l-7 63l-40 -46l-22 -22l-92 -67l-28 -22l-77 -34l-21 -4l-10 -5q-60 -11 -112 -11q-15 0 -33 1t-40 4q-92 14 -184 86q-86 75 -120 166l-5 13l-4 16q-24 69 -24 114q0 48 5 61l-26 -27zM176 699q0 -15 1 -33t4 -40q14 -100 86 -184l31 -24 q22 -17 42.5 -29.5t42.5 -23.5q39 -18 79 -18l6 -3q69 0 129 15q42 9 96 40l15 10l34 24l56 55q29 32 49 68q62 112 62 222q0 55 -13 106t-43 107l-53 64l-18 12q-93 70 -188 70q-46 0 -91.5 -12t-95.5 -36q-64 -33 -112 -87q-71 -69 -104 -187q-15 -57 -15 -116z" />
<glyph unicode="b" horiz-adv-x="1119" d="M3 737l93 167l-4 175v296l-5 293l3 45l3 100l3 106q9 104 126 196q29 9 57 9q60 0 125 -42l39 -46l27 -60l9 -43l8 -50l4 -92q0 -63 -8.5 -128t-25.5 -130q-30 -129 -81 -255q-35 -98 -82.5 -197.5t-103.5 -204.5l1 -69l1 -69q0 -70 16 -137l51 -105q54 -78 130 -123 q68 -38 129 -38l18 1l46 9q63 24 117 78q46 37 69.5 92t36.5 93l6 103v9q-50 18 -106.5 46.5t-113.5 82.5l-25 27q-60 81 -81 148q-13 49 -13 82q0 39 31 79q40 34 76 34h20.5t20.5 -2q18 0 34 -5l27 -12l34 -18q29 -14 60.5 -46.5t53.5 -80.5l6 -18q45 -119 69 -257 q41 -87 90 -87l19 3l116 42l35 -24l35 -24l-122 -68q-29 -16 -59 -16q-53 0 -115 54q0 -101 -52 -203t-179 -169q-38 -24 -80 -34l-77 -12l-6 3q-169 0 -314 178q-60 91 -71 137l-23 150l-26 -20zM180 1709l3 -247v-24v-224l3 -132l9 -3q14 35 55 142q36 95 56 149 q26 72 56 157q42 122 42 243q0 101 -30 206l-9 15l-12 12l-80 36q-91 -70 -91 -158zM563 1088q0 -30 17 -58l53 -90l54 -64l106 -54h9l-21 88l-15 51q-9 44 -45 96t-97 70l-55 -3q-6 -18 -6 -36z" />
<glyph unicode="c" horiz-adv-x="1041" d="M1 737l210 312l52 52l57 48l61 31l15 6q79 29 155 29q75 0 156 -51l54 -60l22 -78l-91 -13l-6 33l-9 16q-27 36 -66.5 48.5t-72.5 15.5q-76 0 -161.5 -54.5t-138.5 -139.5q-56 -118 -56 -230q0 -122 72 -236q65 -78 139 -110q32 -12 68 -18q24 -3 36 -4t38 -1l90 21l3 -6 l176 106l63 55q42 36 96 114l78 115l69 -48l-72 -130l-80 -94l-12 -15l-51 -45q-34 -25 -63.5 -44.5t-66.5 -41.5q-65 -35 -119 -54q-75 -24 -162 -24l-16 3q-96 0 -212 88l-27 18l-54 67l-15 21l-26 46q-7 15 -17 47l-6 22l-22 153l-13 -17z" />
<glyph unicode="d" horiz-adv-x="1473" d="M-6 739l221 255l70 85q15 20 38.5 41.5t51.5 41.5q76 47 151 64q20 4 44.5 7t47.5 3q93 0 182 -43l37 -25l38 -28q37 -28 63 -64l1 263l-1 170l1 504l1 120h62h34v-83l-2 -193l2 -320v-471v-15v-78v-67v-39l-2 -56v-80v-13q0 -20 -1 -40t-2 -38l3 -58v-59l3 -34 q0 -17 9 -36.5t12 -28.5q45 -59 104 -59l19 1l86 67l210 304l69 -47l-211 -331l-55 -46l-19 -13l-31 -15l-15 -3l-99 -6q-21 9 -37.5 17t-44.5 24q-47 26 -65 73l-19 83l-95 -105l-70 -52l-16 -12l-52 -28l-15 -3l-34 -12l-31 -9l-3 5l-111 -15q-129 0 -261 117l-34 40 q-43 59 -71 132q-24 69 -24 145l-1 79l-67 -65zM219 691l3 -27q0 -21 3 -41.5t10 -43.5q14 -42 42 -93q44 -73 113.5 -114t126.5 -41l6 -3q64 0 151 25l126 83l46 50q47 64 74 132t27 141l-3 12q0 56 -15 115.5t-49 118.5l-25 28l-33 36q-39 37 -83 55q-15 6 -41.5 13.5 t-48.5 12.5q-40 0 -79 -6q-36 -4 -78 -18q-80 -27 -153 -106l-19 -28q-101 -136 -101 -301z" />
<glyph unicode="e" horiz-adv-x="1093" d="M-3 737l117 138q26 30 38.5 78t42.5 92l89 96l81 47l16 3l6 6l15 3l19 6q65 15 131 15t132 -42q56 -40 65 -97l-19 -96q-48 -75 -115 -115l-63 -35l-63 -29q-40 -13 -75 -21q-16 -3 -33 -5t-33 -2h-52h-21l-65 3l-25 -4l-3 -105q0 -54 16 -102l6 -22l6 -19l40 -74l43 -40 q46 -38 97 -58q25 -9 50.5 -14t52.5 -5q36 0 50 1.5t41 6.5q57 11 64 13q32 9 49 13l71 34l15 12l50 28l176 186l80 104l70 -47l-150 -202l-105 -90l-56 -44l-28 -21l-21 -10l-56 -31l-16 -3l-37 -15l-112 -21l-52 -6l-62 -1l-9 3l-103 21l-92 47l-59 53q-21 26 -37 53 l-31 61l-7 19l-36 211l-23 -24zM207 871l31 -2h12h16h59q123 0 214 55l15 12l19 13l33 18l53 75l3 19q0 25 -33 49q-51 27 -104 27l-35 -3q-70 -12 -138 -49l-52 -43l-12 -19z" />
<glyph unicode="f" horiz-adv-x="466" d="M-218 -262q0 41 9.5 84t19.5 77.5t26 76.5q27 75 72 156l113 174l41 40l9 12l12 16l24 30l10 34v309l-44 -63l-72 47l116 199q15 131 15 262q0 153 -21 312q-9 66 -9 132q0 114 24.5 220.5t78.5 224.5h9q30 39 73 48h22l77 -11l18 -13q42 -27 70 -73l22 -43l20 -120 q0 -125 -21.5 -241.5t-70.5 -232.5q-99 -234 -216 -474v-96v-64l1 -50l-1 -47l1 -82l-1 -95l21 9l16 16l82 61l9 15l139 143l70 -47q-15 -21 -45 -52t-71 -68l-123 -113l-31 -22l-15 -22l-40 -30l-12 -12v-306v-19v-15l-9 -333q-15 -65 -38 -126.5t-87 -124.5l-31 -18 l-52 -9l-6 3q-50 0 -110 61l-19 19l-9 15q-66 114 -66 226zM-127 -274v-25q0 -48 30 -119l12 -18l40 -46l28 -12h31l5 3l25 21q38 56 58 117q17 55 25 119l-3 64v189v18v220l-10 25q-110 -136 -179 -278q-15 -31 -26.5 -64.5t-20.5 -71.5q-15 -69 -15 -142zM189 1683l1 -58 l7 -46q21 -126 21 -251q0 -104 -15 -211l9 -3q84 194 172 423q49 130 49 261q0 84 -19 163l-3 16l-9 21l-13 9l-15 18q-10 8 -27 14t-31 6t-25 -4q-102 -177 -102 -358z" />
<glyph unicode="g" horiz-adv-x="1259" d="M-6 738l178 259q49 74 132 139q95 58 171 76q19 4 43.5 7t46.5 3q94 0 189 -43l70 -40l70 -76l-1 122h92v-426v-27v-24l1 -209l51 41l112 101l110 97l70 -48l-110 -98l-97 -91l-134 -128l-1 -125l1 -75v-25v-33v-18v-99v-19l-1 -101v-172q0 -29 -5 -58t-26 -81 q-14 -34 -34.5 -66.5t-51.5 -68.5l-28 -15l-63 -3q-36 0 -68.5 22.5t-62.5 65.5l-34 61q-30 99 -30 193q0 162 88 308q19 42 42 85t50 84q53 86 134 173l-1 64l-59 -68l-32 -31l-37 -31l-21 -15q-64 -39 -130.5 -57.5t-133.5 -18.5q-121 0 -219 67q-35 20 -64 53l-48 62 q-39 66 -56.5 136.5t-17.5 140.5l-14 -18zM164 701q0 -106 55 -213q40 -70 104 -111q35 -22 64 -33q32 -10 57 -10l6 -3l15 -1h16q117 0 233 80l13 5q93 81 130 166q20 45 30 87q4 18 7 41.5t3 43.5q0 38 -3 68.5t-11 61.5q-14 59 -50 116l-21 31l-15 12l-9 12l-89 55 q-65 27 -131 27q-49 0 -100 -15l-18 -6q-38 -11 -100 -52q-61 -46 -113 -122q-73 -119 -73 -240zM672 -248q0 -81 18 -138l31 -64q32 -48 67 -48l29 3q85 117 85 245v125l1 125l1 124v86v67q-50 -73 -87 -132q-46 -73 -78.5 -133.5t-51.5 -125.5q-15 -63 -15 -134z" />
<glyph unicode="h" horiz-adv-x="1344" d="M-4 737q57 93 140 170l-1 366v219l1 252v52v24q0 14 1 31.5t5 46.5t12 64q15 73 100 131q52 32 101 32q38 0 75 -17l67 -61l12 -18l18 -42l3 -15l9 -31q2 -9 7.5 -34.5t12.5 -67.5q4 -26 6 -47t2 -45v-21q0 -96 -24 -200t-67 -213l-55 -133l70 27q57 18 110 18 q99 0 187 -61l76 -78q69 -126 69 -257q0 -44 -6 -79l-9 -65l-3 -62q0 -52 9 -106.5t28 -113.5q31 -49 94 -49l24 7l34 18q28 33 60 84q37 59 61 93q59 90 118 181l70 -47l-197 -339l-70 -58q-55 -29 -111 -29q-57 0 -111 33l-54 54q-42 90 -42 181q0 4 -3 16t-3 18 q0 3 -1 17t-1 15q3 25 4 40.5t1 46.5q0 18 9 65q5 26 5 39q0 9 -1 14l-10 116l-16 54l-2 16q-18 49 -69 92t-98 54h-33t-29 -2q-23 0 -51 -7q-54 -12 -112 -64q-81 -102 -125 -200.5t-44 -193.5l1 -424h-114v535l-68 -89zM227 1631l3 -57v-16q0 -12 -0.5 -24.5t-0.5 -24.5 v-14v-58t1 -49l2 -130l-1 -110l-1 -111h6q115 179 177.5 364t62.5 361v19v18l-21 119q-9 60 -64 118l-39 5l-25 -5q-33 -9 -64 -52q-20 -78 -28 -165t-8 -188z" />
<glyph unicode="i" horiz-adv-x="806" d="M-4 737l117 147q63 93 100 179q14 33 28 81q10 34 27 98h87v-107v-351v-194l1 -118q0 -55 68 -115l82 -10l20 7l6 3q84 81 141.5 185t129.5 195l70 -47l-184 -313l-56 -66q-38 -32 -86 -50q-25 -8 -46 -12t-48 -4l-10 3q-39 0 -98 45q-53 43 -68 97l-7 19 q-7 26 -9.5 46.5t-2.5 50.5l-1 41v348l-63 -63q-16 -27 -41 -48l-44 -47l-41 -47zM200 1609q0 33 17.5 61.5t47.5 42.5q21 10 47 10q33 0 61.5 -17.5t42.5 -47.5q10 -21 10 -47q0 -33 -17.5 -61.5t-47.5 -42.5q-21 -10 -47 -10q-33 0 -61.5 17.5t-42.5 47.5q-10 21 -10 47z " />
<glyph unicode="j" horiz-adv-x="500" d="M-108 -223l3 46q15 157 102.5 306.5t209.5 307.5l2 61v18v171v140l1 116l-138 -253l-72 47q25 51 108 200q36 63 53 100q24 53 45 100v106h97l1 -182l-1 -366l1 -143l111 103l10 12l18 18l30 26l32 26l69 -47l-38 -51l-12 -15l-60 -50l-64 -52l-12 -15l-27 -33l-58 -67 l1 -34v-46l-1 -102v-54v-28v-75v-292q0 -73 -18.5 -145.5t-57.5 -146.5l-29 -34l-16 -15l-30 -12l-46 -9l-5 3h-19l-84 36l-37 43q-20 31 -33.5 63t-22.5 70q-5 28 -9 66.5t-4 66.5v15zM-22 -241q0 -112 68 -221l33 -27l25 -13q11 3 18 6q22 11 33 31q39 68 52 128t13 143 l-2 94l-3 75l-2 93l1 101l-2 70l-1 58l-89 -139q-51 -80 -84.5 -156t-50.5 -158q-9 -44 -9 -85zM144 1595q0 57 45 90q29 22 67 22q57 0 90 -45q22 -29 22 -67q0 -57 -45 -90q-29 -22 -67 -22q-57 0 -90 45q-22 29 -22 67z" />
<glyph unicode="k" horiz-adv-x="1266" d="M-6 738l62 106l50 59l-1 237v173v159v86v45v51v48v34v33l1 42v49l2 35q0 54 43.5 122t78.5 78q50 29 104 29q41 0 86 -17q43 -24 77 -69t40 -86q7 -26 9 -46.5t2 -47.5q0 -13 -1 -43.5t-1 -49.5q0 -107 -25 -207q-51 -210 -145 -419v-19l19 22q79 54 149 74l86 13 q41 0 75 -11q36 -9 83 -36q90 -51 106 -139l3 -42q0 -74 -37 -145l-9 -15q-42 -66 -106 -103l-120 -64q78 -36 148 -112l16 -22l9 -16l47 -83l16 -24l16 -19q17 -19 42 -32l28 -4q53 0 112 60l207 316l70 -49q-83 -124 -177 -277q-89 -144 -212 -144h-19l-12 2 q-84 18 -140 99l-6 13l-15 18l-38 72l-52 65q-52 41 -114 56l-58 10l-58 5l-31 3l-168 -3l-2 6v84h24l106 2h30q15 3 27.5 4.5t21.5 3.5t27 9q63 17 128 45q30 13 63 32t66 44l15 6q35 51 51 102q3 11 5 22.5t2 24.5q0 31 -11 56q-31 50 -79 65l-85 22l-41 -7l-19 -5l-9 -6 l-15 -4l-81 -43q-56 -32 -106 -90l-93 -115l-6 -25q-23 -31 -38 -74l-18 -75v-25v-28v-381h-93l-3 -1v314v62v15v94l-38 -52zM201 1253l1 -117v-18v-28v-47h7q118 175 172.5 350.5t72.5 365.5l-9 137q0 65 -72 130l-19 10l-49 -3l-13 -7q-41 -36 -65 -82 q-10 -20 -14.5 -41.5t-7.5 -49.5l-3 -37l-1 -159l1 -103v-95v-147z" />
<glyph unicode="l" horiz-adv-x="601" d="M-6 737l106 163v354v253v276q0 50 8 98q3 26 8.5 58.5t18.5 53.5q40 65 60 78q25 16 43 31l18 9l28 12q13 4 24 6t28 2q18 0 25.5 -0.5t25.5 -4.5l71 -33l52 -64q42 -95 42 -184q0 -307 -119 -584q-17 -49 -41 -94t-61 -101l-127 -194v-449l13 -28l2 -15l18 -21 q17 -8 31 -12t33 -4q41 0 82 25q84 102 124.5 191t95.5 179l69 -48l-38 -76l-61 -139q-72 -166 -188 -221l-101 -12l-6 3l-25 3l-36 10q-27 9 -62 45l-15 22l-15 33l-9 30l-8 37l-8 68v43l-2 137v59l-33 -41zM200 1782.5q0 -6.5 1 -11.5v-501v-232q126 178 184 356.5 t76 370.5l-7 129q0 63 -64 128q-20 13 -48 13q-19 0 -46 -6q-33 -25 -49 -48q-12 -18 -29 -57q-9 -22 -13.5 -59.5t-4.5 -64.5v-17.5z" />
<glyph unicode="m" horiz-adv-x="2168" d="M-1 738l226 371l61 48l27 18l15 5l14 3l16 8l16 1q60 0 125 -43l32 -34l25 -54l6 -87l4 6l12 18l22 26l39 43l73 67l33 20l10 2l27 14l6 9l15 3l6 6l15 2l9 6q27 9 53 9l13 -1l26 -4l92 -24l43 -22l24 -19q40 -39 59 -86l13 -40l13 -43l86 114l100 86l33 14q53 31 108 31 h12l14 -2q64 -9 136 -48l5 -9l27 -10l29 -36l8 -10l17 -30q26 -54 39.5 -114.5t13.5 -121.5v-21l-1 -133l8 -250l16 -39q29 -52 76 -52q36 0 60 33l41 56l177 314l70 -48l-109 -204l-137 -202l-33 -22l-15 -6l-18 -6l-31 -3q-40 0 -84 19l-47 33q-66 84 -66 172v18q0 9 2 14 q1 10 1.5 17.5t0.5 13.5q0 19 -1.5 49t-1.5 31l-1 66l-4 47l1 24l1 109l-19 104l-8 27l-11 24l-47 56l-46 30q-11 6 -32 14t-40 8l-19 -2q-11 0 -22 -5l-55 -28l-9 -12q-48 -30 -110 -104q-40 -52 -60 -97q-6 -14 -13 -22t-13 -25l-14 -49l-1 -133v-100v-74l1 -56l-1 -87 v-87h-99v572l-1 63l-2 51l-8 53q-9 44 -51.5 80.5t-87.5 48.5q-13 5 -34 5q-50 0 -118 -46l-91 -77l-19 -29q-55 -63 -86 -129q-13 -30 -17 -53t-10 -85v-131l1 -323h-92v88l-1 89v15l1 229v201l-1 83v57q0 8 -0.5 20t-4 25t-21.5 29q-6 5 -18 13l-50 10l-6 -2l-15 -6 l-40 -31l-9 -12l-21 -20l-39 -63l-173 -277z" />
<glyph unicode="n" horiz-adv-x="1694" d="M-8 738l98 185l77 131q35 62 112 116l21 15l40 19q20 5 42 5q60 0 123 -45l40 -40q28 -44 28 -88l1 -42l1 -44q28 41 46 65q55 72 99 107q21 17 63 43q13 8 36 21q13 6 21 9q25 10 44.5 14.5t27 6t21.5 1.5h13q10 -2 16 -2q44 -4 82.5 -14t79.5 -31l95 -85l18 -25l12 -15 q27 -56 41 -110t14 -111l-3 -52q-1 -34 -2 -54.5t-4 -32.5q-8 -37 -8 -64v-25t1 -23v-45q0 -45 2.5 -74.5t13.5 -64.5q21 -36 53 -45l30 -5l30 -2l16 3l59 48q20 26 41 53q9 13 33 53q8 14 15 30q20 47 22 51q20 36 52 80l49 83l68 -47q-42 -71 -97 -183q-50 -107 -111 -180 l-65 -58q-28 -18 -66 -23l-64 -2l-9 4l-28 2l-80 46l-30 43l-16 34q-5 14 -7 22t-7 34l-4 61l6 118l2 98l3 68v41v16v14v24q0 14 -2 28q0 14 -6 43l-33 71l-40 45l-31 24l-8 7q-66 30 -120 30q-24 0 -45 -6l-19 -6q-120 -54 -213 -180q-75 -78 -97 -233v-451l-96 -1l1 288 v19v49v55l1 106l-1 62q-3 21 -3 37q0 11 1 17l-1 45q-2 19 -3 39q0 24 -2 39.5t-4 32.5q-3 11 -5 20t-22 39q-10 14 -26.5 19t-36.5 5h-11.5t-8.5 -1l-25 -15l-28 -16q-42 -33 -61 -67l-45 -73l-145 -250z" />
<glyph unicode="o" horiz-adv-x="1176" d="M-6 739l134 153q60 71 87 133.5t217 176.5q67 23 129 23q30 0 63 -6q14 -3 31 -7t32 -10l-32 -85q-47 14 -93 14l-30 -2q-18 0 -25 -2q-99 -15 -185.5 -114.5t-122.5 -189.5l-16 -93l13 -116q12 -76 89.5 -157.5t159.5 -101.5q48 -12 94 -12q82 0 157 41q97 57 147 152 q26 49 40 93t14 85l-19 13l-44 39l-21 16q-77 50 -110 141q-14 44 -14 78q0 42 21 84l13 23q23 21 52 26h51q69 -42 94 -101l45 -109l26 -97l7 -59l12 -13q36 -18 46 -28q3 -2 16 -4h10l20 4l79 12l70 -49q-63 -30 -129 -42l-27 -3l-17 -1q-42 0 -84 15l-21 -73l-29 -73 q-30 -72 -109 -145l-44 -42l-23 -16l-16 -10l-16 -9l-40 -13q-38 -21 -80 -28l-28 -1l-53 -7l-15 3q-90 0 -192 56q-100 57 -170 164q-52 102 -52 141q0 40 -18 103l-23 -18zM782 1001q0 -21 11 -44l33 -72q12 -33 52 -52l13 3q-14 41 -24 83q-9 46 -38 89l-32 32l-10 -10z " />
<glyph unicode="p" horiz-adv-x="1378" d="M-9 738l57 95q70 97 105 185q40 102 40 200l89 -2l-1 -261l102 111l21 18l27 30l59 36l18 15l72 33q45 16 78 16q21 0 30.5 -1.5t26.5 -6.5q70 -18 137 -56l48 -45l18 -18l36 -60l2 -15q14 -37 19.5 -88.5t5.5 -120.5l-4 -110v-39v-29v-11l-1 -39l-3 -33l-2 -31 q0 -63 33 -129q20 -33 48 -39l54 -6l33 12q72 63 133 190q30 63 59 114t54 85l71 -48q-49 -78 -112 -210t-152 -203q-48 -28 -101 -28q-61 0 -126 37l-41 45l-22 44q-8 25 -13 62l-4 66l3 130v69v55l3 49l2 31l1 16q0 70 -30 145l-12 17q-21 39 -66 69q-69 37 -133 37 l-22 -1l-12 -6l-15 -3l-45 -24l-15 -9l-72 -45l-9 -6q-182 -173 -182 -362v-1251h-101v232v33v29v25v21v19v16v14v12q0 19 -0.5 38t-0.5 38v11l2 245l-2 686l-116 -142z" />
<glyph unicode="q" horiz-adv-x="1076" d="M3 738l203 276q24 35 38 50q21 27 46 46l46 38l89 49l31 6q67 23 122 23q10 0 22.5 -1t26.5 -4l75 -18q88 -15 171 -109l26 -33v173h104v-578l80 82l69 -48l-149 -162v-1114h-104v1050l-47 -60l-7 -7q-22 -28 -49 -48l-53 -40q-52 -34 -107 -53t-115 -19h-37 q-16 3 -25.5 4t-25.5 4t-32 7q-55 12 -112 60l-31 20l-62 69l-14 20l-37 72l-3 17l-24 78l-6 34l-1 45v66l-38 -43zM203 700q0 -67 21 -139l6 -10l34 -79l51 -59q65 -63 165 -77h10l14 -1h14q95 0 205 69l10 13l47 45l38 55q35 62 54.5 122.5t19.5 114.5q0 68 -12.5 125 t-47.5 113l-41 54l-28 24l-109 55q-41 9 -78 9q-46 0 -86 -13l-10 -6l-17 -4l-75 -41l-35 -24l-10 -13l-41 -45q-99 -138 -99 -288z" />
<glyph unicode="r" horiz-adv-x="1138" d="M0 738q17 34 58 119q30 63 61 127q59 129 76 245l88 9l5 -52l21 -21q21 -5 47 -8t54 -3q59 0 103 11q11 3 19.5 4t26.5 1q80 0 157 -67l15 -20l23 -70v-18l-9 -135q0 -128 -25 -235q-9 -39 -9 -78q0 -72 34 -155q24 -43 65 -62l61 -3q93 41 143 150l43 94q18 40 34 64 l48 103l70 -48l-124 -250q-77 -159 -194 -195l-81 -3q-69 9 -129 88l-36 59q-9 41 -14 82.5t-5 84.5q0 40 3 73.5t11 72.5t13.5 75.5t5.5 67.5l4 176l-47 53l-175 3h-15h-24l-69 1q-29 0 -65 13l-12 4q-15 -62 -36 -118t-57 -117l-92 -169z" />
<glyph unicode="s" horiz-adv-x="921" d="M0 738l128 147l122 168l148 181l70 -32q-1 -5 -1 -11q0 -37 30 -75q29 -39 67 -77l43 -46l87 -108l47 -76l3 -15l12 -37v-14l8 -162l166 158l71 -48l-304 -287l-25 -31l-27 -32l-35 -29l-17 -14q-52 -36 -110 -46l-50 -6l-58 -1l-8 3q-54 0 -103 23.5t-99 69.5l-23 23 l-20 26l-20 27l-3 6l64 40l5 4l15 -7q45 -79 113 -101q48 -21 117 -27h20l38 6l20 6l61 32q84 63 106 142q11 39 15 76l4 79q0 41 -12.5 79t-36.5 75l-35 49l-15 12l-73 75l-57 62l-23 27l-24 36l-23 -29l-47 -58l-87 -113l-6 -6l-38 -58l-129 -134z" />
<glyph unicode="t" horiz-adv-x="945" d="M0 739q124 148 234 416q53 128 78 236.5t25 185.5h-153l-136 1v120l286 -1v143v295l120 1l-1 -285l1 -150h198l102 -1l70 1v-122h-153l-205 1v-208v-141l-1 -190v-439v-30v-33l11 -86l22 -45l42 -38l37 -11l37 -3q45 0 83 25l48 41l197 318l70 -49q-62 -103 -128 -256 q-57 -138 -213 -188l-83 -5l-7 5q-46 0 -97 25t-94 69q-32 71 -41.5 137.5t-9.5 158.5q0 8 -1 37t-1 45v21q2 12 2 17v39v26v18v13q0 15 -0.5 31.5t-0.5 34.5v13l-2 188q-7 -34 -12.5 -44.5t-10.5 -20.5q-13 -38 -41 -81l-91 -146l-110 -138z" />
<glyph unicode="u" horiz-adv-x="1478" d="M0 738l28 41l46 60l38 76l52 159q22 76 31 160h106v-214v-31v-24v-18v-15v-13q0 -18 -0.5 -37t-0.5 -39v-12l3 -145l-3 -21q0 -7 4 -66.5t7 -65.5q34 -79 59 -105q43 -34 87 -68l63 -20l57 6l20 11l71 33l17 14q125 94 179 211.5t68 233.5v167l-3 218h100v-214v-201v-23 l14 -335q9 -36 42 -66q32 -27 68 -31h30l21 6l13 6q83 69 137.5 171t123.5 192l70 -49l-60 -97l-51 -93q-47 -93 -129 -180l-10 -10l-24 -17l-30 -13q-42 -15 -80 -15q-48 0 -95 25l-86 74q-48 68 -48 161l-93 -121l-54 -47l-10 -13l-46 -31l-10 -3l-21 -17q-37 -23 -86 -35 l-85 -16l-10 4q-64 0 -151 54l-33 26l-17 18l-14 16l-10 16l-62 88q-21 45 -21 157l-3 69v115l-2 26l-55 -55l-80 -86z" />
<glyph unicode="v" horiz-adv-x="1452" d="M0 737q58 86 139 258q75 163 199 215q13 4 28.5 7t30.5 3q63 0 132 -47q65 -67 65 -126l2 -69l3 -54v-94l1 -92l3 -93q0 -23 3.5 -45t8.5 -44l6 -22l27 -61q35 -54 105 -105q33 -18 63 -24l60 -9h33l36 4q37 5 71 29l34 25q51 39 79 104t45 117l11 89q-49 23 -107.5 59.5 t-100.5 96.5q-32 45 -55 117l-10 48l-2 56q0 25 10.5 49.5t31.5 52.5q28 40 79 40l13 -1q85 -39 126 -119q21 -39 38 -75q13 -28 30 -69l6 -18l37 -160l6 -7q22 -15 83 -33q33 -9 54 -9q16 0 27 7l35 -24l35 -24q-51 -45 -117 -45q-54 0 -123 34q0 -69 -26 -136.5 t-79 -146.5l-34 -46l-67 -52l-83 -40l-33 -9l-34 -5l-65 -2l-9 3q-55 0 -111 27.5t-116 80.5l-18 21l-4 9l-30 37q-13 21 -29 56l-9 30q-2 6 -5 14t-6 14q-8 35 -13 84l-3 99v182v22v24v22l-6 83l-9 21q-29 53 -89 53l-62 -16l-15 -12q-75 -72 -136.5 -197.5t-118.5 -208.5z M1001 1068q0 -56 22.5 -106.5t67.5 -95.5l79 -50l9 -3l-24 99l-45 110q-20 53 -87 104l-19 -37z" />
<glyph unicode="w" horiz-adv-x="2486" d="M-2 737q31 46 66 108q40 71 77 150q75 163 199 215q13 4 28.5 7t30.5 3q63 0 132 -47q65 -67 65 -126v-4t-1 7l283 -715l412 895l5 -5h130l491 -890l309 368q-49 23 -107.5 59.5t-100.5 96.5q-29 42 -55 117l-10 48l-2 56q0 25 10.5 49.5t31.5 52.5q14 20 33 30t47 10 l13 -1q83 -40 125 -119q21 -39 38 -75q13 -28 30 -69l6 -18l37 -160l6 -7q22 -15 83 -33q33 -9 54 -9q16 0 27 7l35 -24l35 -24q-51 -45 -117 -45q-54 0 -123 34q0 -21 -92 -133q-61 -75 -172 -199q-91 -102 -92 -102l-65 -3l-44 3l-496 880v-5l-413 -881l-127 1l-39 4 q11 1 23 1h9l-313 800l3 5l-9 21q-29 53 -89 53l-62 -16l-15 -12q-75 -72 -138 -199q-35 -72 -57 -114q-31 -58 -55 -93zM2041 1068q0 -56 22.5 -106.5t67.5 -95.5l79 -50l10 -3l-25 99l-45 110q-20 53 -87 104l-19 -37z" />
<glyph unicode="x" horiz-adv-x="1644" d="M0 738l291 416l9 2l25 20q48 27 107.5 39.5t121.5 12.5q57 0 110.5 -27t106.5 -81q28 -34 42 -64l31 -60l53 92q26 46 84 91l12 6q36 23 73.5 33.5t71.5 10.5q40 0 80 -16t77 -47q77 -62 122 -146l-18 -21l-58 -31l-19 37l-21 24q-38 65 -96 89q-28 11 -53 15l-56 4 q-82 -24 -124.5 -103.5t-65.5 -143.5q-9 -46 -14 -96.5t-5.5 -71t-0.5 -32.5q0 -100 55 -198l15 -21q39 -62 110 -99l38 -19l138 10l121 53l15 11q82 51 153 145q28 38 61 85q27 39 55 81l71 -48l-83 -127q-46 -74 -98 -123q-22 -24 -48.5 -42t-49.5 -38l-16 -5l-27 -20 l-15 -12q-38 -13 -65.5 -27t-64.5 -23l-57 -10l-27 -5l-26 -2q-93 0 -192 84q-45 33 -72 78l-25 44l-23 42q-21 -53 -61 -113t-104 -99l-63 -25l-84 -10l-77 15q-47 7 -96 56t-85 102l-17 24l-22 43l-3 18l22 11l18 11l21 12l18 5l18 -33l19 -28l11 -24q38 -55 93 -95 q53 -22 99 -22q48 0 92 25q117 101 135 217l17 115q8 67 8 113l-3 45l-9 46q-9 40 -36 92l-17 25q-42 68 -101 90q-13 5 -21 7t-36 7.5t-53 5.5l-84 -15q-89 -18 -129 -106l-47 -67l-6 -12l-175 -249z" />
<glyph unicode="y" horiz-adv-x="1110" d="M3 737q48 87 102 249q27 80 42 140q9 34 13 53t10 55h95l1 -77v-81v-61v-90l-1 -121l1 -42v-59l-1 -32v-25l5 -35l15 -63l3 -14l24 -45l48 -52q48 -45 99 -45q27 0 57 13q108 36 192 144t108 207v478h106v-246v-16l3 -95l-3 -25l3 -165v-21l3 -90l159 141l28 21l70 -47 l-57 -55l-72 -66q-21 -19 -43 -40q-2 -2 -25 -26q-30 -33 -57 -69l1 -145v-89v-21v-15v-11q0 -19 -0.5 -35.5t-0.5 -30.5v-14q0 -58 1.5 -127t1.5 -80q2 -13 3 -37.5t1 -37.5q0 -149 -39 -235q-33 -73 -98 -119l-80 -24l-6 3q-40 0 -74 21t-64 63l-45 87q-35 94 -35 183 q0 121 62 244q108 213 261 429l8 102l-80 -100l-115 -93l-87 -41q-46 -17 -89 -17q-80 0 -154 58q-66 69 -99.5 138.5t-33.5 138.5l-2 237l-94 -176zM593 -224q0 -70 22 -137q9 -33 31 -73t65 -56l33 3l12 6q55 73 64 151l15 153l-3 242v147l3 19l-12 59l-7 -11 q-102 -152 -182 -319q-41 -90 -41 -184z" />
<glyph unicode="z" horiz-adv-x="1332" d="M0 738l11 19l36 56l105 162l109 167l61 92q91 -52 191.5 -75.5t202.5 -23.5l171 21l144 65l9 -15l37 -41l7 -9l-57 -77l-121 -125l-71 -71l-41 -44l-37 -31l-46 -42l192 1l-71 -101h-218l-42 -54l-126 -143l-65 -71q10 3 35.5 8t51.5 5q35 0 63 -7q52 -10 79 -16.5 t74 -21.5q71 -20 153 -34q11 0 17 -2h14q19 0 29 1t34.5 6.5t57.5 21.5l19 9l15 3l44 25l34 25q15 15 26 22l26 23q70 55 108 134l76 138l71 -48l-79 -152l-12 -22l-13 -15l-34 -41l-78 -71l-74 -62l-106 -50l-15 -4q-24 -7 -50 -12.5t-72 -12t-96 -6.5l-6 4l-267 72h-22 l-78 -10l-156 -56l-6 -3l-25 18l-34 41l-3 6l91 112l34 37l28 32l148 171l-157 -1l65 101l199 1q19 31 107 110q83 75 116 109l59 68q-29 -4 -59.5 -8t-59.5 -4l-134 -3q-31 0 -62.5 4t-62.5 13q-58 17 -128 54q-42 -54 -83 -124q-31 -59 -94 -125l-7 -22l-111 -149z" />
<glyph unicode="&#xa1;" horiz-adv-x="719" d="M249 2030l3 26q3 20 29.5 47t51.5 30l46 2q65 -18 88 -81l-10 -72l-72 -63l-68 6l-33 20q-35 40 -35 85zM301 297v1398q0 54 55 54t55 -54v-1398q0 -55 -55 -55t-55 55z" />
<glyph unicode="&#xad;" d="M174 745q0 55 34 55h875q34 0 34 -55t-34 -55h-875q-34 0 -34 55z" />
<glyph unicode="&#xbf;" horiz-adv-x="1423" d="M294 707l3 57q20 176 110 361q117 93 224 131q69 22 142 22q47 0 86 -7h44l60 441l119 -18l-23 -264l-22 -262q-17 -28 -382 -28l-73 -45l-115 -165l-21 -131q-4 -31 -7 -66t-3 -60q0 -64 24.5 -126.5t79.5 -126.5l158 -60q85 0 174.5 75t177.5 132l46 -138l-178 -127 q-73 -42 -148 -53l-70 -5l-73 -2l-32 17q-136 18 -220 144q-81 158 -81 304zM958 2052q0 48 48 84h30h30q53 -12 72 -45v-29v-29q-9 -51 -48 -63q-17 -6 -36 -6q-25 0 -48 10q-36 12 -43 44l-4 18z" />
<glyph unicode="&#xc1;" horiz-adv-x="1708" d="M202 274l175 556h1072l110 -295l106 -268l-166 -2l-176 405h-809l-143 -394h-160zM382 828l372 1120h219l479 -1123l-192 1l-391 904l-314 -904zM849 2170l358 221l30 -124l-368 -223z" />
<glyph unicode="&#xc9;" horiz-adv-x="1224" d="M242 242v1639l921 -1l3 -122h-812v-603l810 1l-1 -116h-798v-682l801 1l-3 -117h-921zM645 2134l358 221l30 -124l-368 -223z" />
<glyph unicode="&#xcd;" horiz-adv-x="968" d="M240 1743v129h677l-1 -125l-277 1v-1385l282 1l1 -122h-677v122h264v1378zM489 2110l358 221l30 -124l-368 -223z" />
<glyph unicode="&#xd1;" horiz-adv-x="1487" d="M245 242v1604h160l895 -1358l-3 1358l120 -3v-1601h-90l-967 1453l1 -1453h-116zM414 2080q55 25 116 37t128 12q141 -15 276 -39q35 -6 70 -6q104 0 201 53l48 -75l-8 -27q-77 -37 -160 -49l-78 -7l-80 -3l-9 3q-21 3 -40 6t-44 8q-49 9 -55 10q-26 7 -38 10 q-54 13 -106 13q-16 0 -33.5 -1t-36.5 -4l-79 -30l-9 -4l-23 8l-35 63z" />
<glyph unicode="&#xd3;" horiz-adv-x="1801" d="M267 1133q0 57 22 128q8 24 49 133q23 60 57 124.5t80 134.5l22 31q58 73 132 128t147 87l19 6l19 9q92 25 168 25q176 0 347 -117l37 -24l13 -13l49 -46l21 -24l59 -80q43 -64 92 -170v-9l30 -64q26 -85 53 -169q24 -89 24 -169q0 -62 -4 -111t-16 -88 q-63 -198 -131.5 -273.5t-106.5 -130.5q-19 -23 -49 -36q-40 -17 -53 -27l-56 -38l-60 -34l-19 -6l-95 -43q-60 -21 -129 -21h-6q-97 0 -190 37q-47 16 -93 33q-55 22 -95 55q-21 15 -39 33q-4 4 -17.5 18t-21.5 23q-35 34 -69 68l-13 18l-18 28l-61 123l-3 16l-22 58 q-9 32 -26 56q-13 18 -16.5 53t-17 122t-13.5 146zM387 1054q0 -91 11 -133q16 -46 27 -82q22 -68 58 -145t82 -152q9 -10 23 -21q38 -28 42 -32q10 -9 43 -18q17 -4 28 -12q74 -51 138 -77.5t122 -26.5l9 -3q105 0 203 52l94 46q54 30 95 78q77 89 107 125q51 61 73 124.5 t30 92.5q18 62 18 147l3 21v16l-3 30q0 32 -6 65t-18 73l-24 85l-19 56q-39 111 -117 234l-86 98l-112 80q-109 62 -219 62q-18 0 -36.5 -1t-37.5 -4q-36 -3 -82 -16l-19 -7l-56 -36l-31 -22q-22 -15 -49 -39l-52 -48q-46 -46 -83 -106q-47 -87 -73 -146q-35 -80 -49 -152 t-24 -111t-10 -95zM932 2145l358 221l30 -124l-368 -223z" />
<glyph unicode="&#xda;" horiz-adv-x="1544" d="M290 1478v418h116l-3 -452l3 -210l3 -104v-29v-25v-21v-19v-16v-14v-12l-1 -43v-42q0 -89 3 -119t7 -52t10 -48q21 -101 119.5 -203.5t198.5 -122.5q40 -11 71 -15l70 -4q14 0 30.5 1t32 4t36 7t40.5 10q114 33 211 148q49 58 76.5 113.5t27.5 109.5l18 496l-5 211 l-2 248l-2 203h120v-766l-3 -267q0 -68 -7 -121q-3 -29 -8 -54.5t-14 -58.5q-30 -113 -156 -233l-47 -40l-9 -4l-119 -69l-16 -3l-19 -6l-38 -13l-44 -9l-159 -10l-166 38l-25 13l-44 19l-43 25q-38 23 -86 72l-72 85q-52 80 -76 167.5t-24 179.5l1 108q0 18 1 54t1 55v16 v15v12l-1 43q0 8 -0.5 18t-3.5 27v113zM849 2170l358 221l30 -124l-368 -223z" />
<glyph unicode="&#xdc;" horiz-adv-x="1544" d="M237 2254q0 35 18 66t49 47t62 16q35 0 66 -18t47 -49t16 -62q0 -35 -18 -66t-49 -47t-62 -16q-35 0 -66 18t-48 51q-15 29 -15 60zM293 1189v113v296l4 310h112l2 -344v-330l-2 -104v-29v-25v-21v-19v-16v-14v-12l-1 -43v-42q0 -89 3 -119t7 -52t10 -48 q21 -101 119.5 -203.5t198.5 -122.5q40 -11 71 -15l70 -4q14 0 30.5 1t32 4t36 7t40.5 10q114 33 211 148q49 58 76.5 113.5t27.5 109.5l18 496l3 331l-2 140l-2 203h112v-778l-3 -267q0 -68 -7 -121q-3 -29 -8 -54.5t-14 -58.5q-30 -113 -156 -233l-47 -40l-9 -4l-119 -69 l-16 -3l-19 -6l-38 -13l-44 -9l-159 -10l-166 38l-25 13l-44 19l-43 25q-38 23 -86 72l-72 85q-52 80 -76 167.5t-24 179.5l1 108q0 18 1 54t1 55v16v15v12l-1 43q0 8 -0.5 18t-3.5 27zM1281 2254q0 35 18 66t49 47t62 16q35 0 66 -18t47 -49t16 -62q0 -35 -18 -66t-49 -47 t-62 -16q-35 0 -66 18t-48 51q-15 29 -15 60z" />
<glyph unicode="&#xe1;" horiz-adv-x="1475" d="M-1 738q-3 3 78 119l123 171q101 124 237 169l19 6l24 6q55 13 106 13q91 0 174 -37q99 -48 157 -133l10 77v37l74 10l18 -4l-13 -348l-2 -141l2 -274q56 -69 110 -69l11 1q23 3 44 23l42 41l262 333l72 -48l-253 -337l-13 -15l-74 -66l-16 -8l-24 -10l-68 -6 q-64 0 -160 93q-24 33 -30 63l-7 63l-40 -46l-22 -22l-92 -67l-28 -22l-77 -34l-21 -4l-10 -5q-60 -11 -112 -11q-15 0 -33 1t-40 4q-92 14 -184 86q-86 75 -120 166l-5 13l-4 16q-24 69 -24 114q0 48 5 61l-26 -27zM176 699q0 -15 1 -33t4 -40q14 -100 86 -184l31 -24 q22 -17 42.5 -29.5t42.5 -23.5q39 -18 79 -18l6 -3q69 0 129 15q42 9 96 40l15 10l34 24l56 55q29 32 49 68q62 112 62 222q0 55 -13 106t-43 107l-53 64l-18 12q-93 70 -188 70q-46 0 -91.5 -12t-95.5 -36q-64 -33 -112 -87q-71 -69 -104 -187q-15 -57 -15 -116zM586 1549 l391 392l122 -50l-379 -382z" />
<glyph unicode="&#xe9;" horiz-adv-x="1093" d="M-3 737l117 138q26 30 38.5 78t42.5 92l89 96l81 47l16 3l6 6l15 3l19 6l74 18q52 12 77 12q32 0 69 -26q21 -16 43 -31q56 -40 65 -97l-19 -96q-48 -75 -115 -115l-63 -35l-63 -29q-40 -13 -75 -21q-16 -3 -33 -5t-33 -2h-52h-21l-65 3l-25 -4l-3 -105q0 -54 16 -102 l6 -22l6 -19l40 -74l43 -40q46 -38 97 -58q25 -9 50.5 -14t52.5 -5q36 0 50 1.5t41 6.5q57 11 64 13q32 9 49 13l71 34l15 12l50 28l176 186l80 104l70 -47l-150 -202l-105 -90l-56 -44l-28 -21l-21 -10l-56 -31l-16 -3l-37 -15l-112 -21l-52 -6l-62 -1l-9 3l-103 21l-92 47 l-59 53q-21 26 -37 53l-31 61l-7 19l-36 211l-23 -24zM207 871l31 -2h12h16h59q123 0 214 55l15 12l19 13l33 18l53 75l3 19q0 25 -33 49q-51 27 -104 27l-35 -3q-70 -12 -138 -49l-52 -43l-12 -19zM450 1549l391 392l122 -50l-379 -382z" />
<glyph unicode="&#xed;" horiz-adv-x="806" d="M-4 737l117 147q63 93 100 179q18 42 33.5 84.5t30.5 88.5h78v-92v-360v-194l3 -118q0 -56 66 -115l82 -10l20 7l6 3q84 81 141.5 185t129.5 195l70 -47l-184 -313l-56 -66q-38 -32 -86 -50q-25 -8 -46 -12t-48 -4l-10 3q-39 0 -98 45q-53 43 -68 97l-7 19 q-16 58 -16 101l3 37v351l-63 -66q-16 -27 -41 -48l-44 -47l-41 -47zM238 1561l391 392l122 -50l-379 -382z" />
<glyph unicode="&#xf1;" horiz-adv-x="1751" d="M2 738l228 366l28 34l15 9l13 16l36 24l46 22q23 10 56 10q30 0 61 -7l61 -28l16 -12q42 -42 50 -100l2 -63l3 -43l62 77l33 37l34 24q64 53 129 91t132 38q87 0 181 -55l36 -22q81 -75 101 -163l12 -84l4 -80q0 -99 -9 -192l-4 -81l1 -48l6 -57l16 -37q17 -30 51 -41 l29 -6l30 -2l34 10q54 35 88.5 98.5t67.5 112.5l99 153l71 -49l-74 -118l-91 -154q-86 -150 -206 -150h-14l-15 2l-9 2q-87 0 -147 96q-38 97 -38 189v22l6 53q3 23 6.5 54t3.5 57l3 131v12q0 36 -9 66t-28 66l-24 40l-18 13q-88 67 -162 67q-24 0 -51 -9l-121 -71l-7 -12 q-171 -132 -192 -291l-11 -148l-3 -156l3 -175l-95 -4l-3 25l-3 605v89l-12 86q-15 27 -41 37l-45 15l-16 -3l-15 -7l-49 -33q-66 -71 -146 -200q-45 -72 -73 -116q-36 -56 -52 -79zM568 1476l80 36l28 10l18 3l26 4l31 1q101 0 200 -65q66 -42 131 -42q62 0 127 40l19 13 l21 9l46 -65l3 -5l-9 -16l-80 -40q-69 -21 -150 -21l-6 3l-13 -1h-10q-81 0 -161 55q-58 41 -118 41q-31 0 -67 -12l-18 -7l-46 -24l-6 -3l-43 67z" />
<glyph unicode="&#xf3;" horiz-adv-x="1176" d="M-6 739l134 153q60 71 87 133.5t217 176.5q67 23 129 23q30 0 63 -6q14 -3 31 -7t32 -10l-32 -85q-47 14 -93 14l-30 -2q-18 0 -25 -2q-99 -15 -185.5 -114.5t-122.5 -189.5l-16 -93l13 -116q12 -76 89.5 -157.5t159.5 -101.5q48 -12 94 -12q82 0 157 41q97 57 147 152 q26 49 40 93t14 85l-19 13l-44 39l-21 16q-77 50 -110 141q-14 44 -14 78q0 42 21 84l13 23q23 21 52 26h51q69 -42 94 -101l45 -109l26 -97l7 -59l12 -13q36 -18 46 -28q3 -2 16 -4h10l20 4l79 12l70 -49q-63 -30 -129 -42l-27 -3l-17 -1q-42 0 -84 15l-21 -73l-29 -73 q-30 -72 -109 -145l-44 -42l-23 -16l-16 -10l-16 -9l-40 -13q-38 -21 -80 -28l-28 -1l-53 -7l-15 3q-90 0 -192 56q-100 57 -170 164q-52 102 -52 141q0 40 -18 103l-23 -18zM586 1549l391 392l122 -50l-379 -382zM782 1001q0 -21 11 -44l33 -72q12 -33 52 -52l13 3 q-14 41 -24 83q-9 46 -38 89l-32 32l-10 -10z" />
<glyph unicode="&#xfa;" horiz-adv-x="1478" d="M0 738l28 41l46 60l38 76l52 159q22 76 31 160h105v-214q0 -78 2.5 -123t2.5 -58q0 -14 1 -45.5t1 -49.5v-36q-3 -15 -4 -22l-3 -21l-1 -24q0 -147 158 -281l63 -20l57 6l20 11l71 33l17 14q125 94 180 212q24 52 37 107t20 116v177h7l-7 218h101v-214l6 -201v-23 l14 -335q9 -36 42 -66q32 -27 68 -31h30l21 6l13 6q83 69 137.5 171t123.5 192l70 -49l-60 -97l-51 -93q-47 -93 -129 -180l-10 -10l-24 -17l-30 -13q-42 -15 -80 -15q-48 0 -95 25l-86 74q-48 68 -48 161l-93 -121l-54 -47l-10 -13l-46 -31l-10 -3l-21 -17q-37 -23 -86 -35 l-85 -16l-10 4q-64 0 -151 54l-33 26l-17 18l-14 16l-10 16q-83 121 -83 245v24l-3 160l-2 26l-55 -55l-80 -86zM586 1549l391 392l122 -50l-379 -382z" />
<glyph unicode="&#xfc;" horiz-adv-x="1478" d="M0 738l28 41l46 60l38 76l52 159q22 76 31 160h100v-208q20 -91 20 -189q0 -73 -12 -151l-3 -21l-1 -24q0 -147 158 -281l63 -20l57 6l20 11l71 33l17 14q125 94 179 211.5t68 233.5l-7 167h4l-7 218l97 1l4 -215l6 -201v-23l14 -335q9 -36 42 -66q32 -27 68 -31h30l21 6 l13 6q83 69 137.5 171t123.5 192l70 -49l-60 -97l-51 -93q-47 -93 -129 -180l-10 -10l-24 -17l-30 -13q-42 -15 -80 -15q-48 0 -95 25l-86 74q-48 68 -48 161l-93 -121l-54 -47l-10 -13l-46 -31l-10 -3l-21 -17q-37 -23 -86 -35l-85 -16l-10 4q-64 0 -151 54l-33 26l-17 18 l-14 16l-10 16q-83 121 -83 245v24l-3 160l-2 26l-55 -55l-80 -86zM135 1626q0 51 38 81q27 23 66 23q51 0 81 -38q23 -27 23 -66q0 -51 -38 -81q-27 -23 -66 -23q-51 0 -81 38q-23 27 -23 66zM859 1626q0 51 38 81q27 23 66 23q51 0 81 -38q23 -27 23 -66q0 -51 -38 -81 q-27 -23 -66 -23q-51 0 -81 38q-23 27 -23 66z" />
<glyph unicode="&#x2000;" horiz-adv-x="1197" />
<glyph unicode="&#x2001;" horiz-adv-x="2394" />
<glyph unicode="&#x2002;" horiz-adv-x="1197" />
<glyph unicode="&#x2003;" horiz-adv-x="2394" />
<glyph unicode="&#x2004;" horiz-adv-x="798" />
<glyph unicode="&#x2005;" horiz-adv-x="598" />
<glyph unicode="&#x2006;" horiz-adv-x="399" />
<glyph unicode="&#x2007;" horiz-adv-x="399" />
<glyph unicode="&#x2008;" horiz-adv-x="299" />
<glyph unicode="&#x2009;" horiz-adv-x="478" />
<glyph unicode="&#x200a;" horiz-adv-x="133" />
<glyph unicode="&#x2010;" d="M174 745q0 55 34 55h875q34 0 34 -55t-34 -55h-875q-34 0 -34 55z" />
<glyph unicode="&#x2011;" d="M174 745q0 55 34 55h875q34 0 34 -55t-34 -55h-875q-34 0 -34 55z" />
<glyph unicode="&#x2012;" d="M174 745q0 55 34 55h875q34 0 34 -55t-34 -55h-875q-34 0 -34 55z" />
<glyph unicode="&#x2013;" horiz-adv-x="1328" d="M174 745q0 55 37 55h950q37 0 37 -55t-37 -55h-950q-37 0 -37 55z" />
<glyph unicode="&#x2014;" horiz-adv-x="2352" d="M174 745q0 55 74 55h1900q74 0 74 -55t-74 -55h-1900q-74 0 -74 55z" />
<glyph unicode="&#x202f;" horiz-adv-x="478" />
<glyph unicode="&#x205f;" horiz-adv-x="598" />
<glyph unicode="&#xe000;" horiz-adv-x="1230" d="M0 0v1230h1230v-1230h-1230z" />
</font>
</defs>
</svg>
