<?xml version="1.0" standalone="no"?>
<!DOCTYPE svg PUBLIC "-//W3C//DTD SVG 1.1//EN" "http://www.w3.org/Graphics/SVG/1.1/DTD/svg11.dtd" >
<svg xmlns="http://www.w3.org/2000/svg">
<metadata>
This is a custom SVG webfont generated by Font Squirrel.
Copyright   : Copyright c 2011 by Pablo Impallari wwwimpallaricom Igino Marini wwwikerncom All rights reserved
Designer    : Pablo Impallari
Foundry     : Pablo Impallari wwwimpallaricom Igino Marini wwwikerncom
Foundry URL : wwwimpallaricom
</metadata>
<defs>
<font id="QuattrocentoSansRegular" horiz-adv-x="1116" >
<font-face units-per-em="2048" ascent="1638" descent="-410" />
<missing-glyph horiz-adv-x="495" />
<glyph unicode=" "  horiz-adv-x="495" />
<glyph unicode="&#x09;" horiz-adv-x="495" />
<glyph unicode="&#xa0;" horiz-adv-x="495" />
<glyph unicode="!" horiz-adv-x="499" d="M152 1397h198l-53 -1090h-96zM156 72q0 39 28.5 68.5t67.5 29.5q37 0 66.5 -29.5t29.5 -68.5q0 -37 -29.5 -66t-66.5 -29q-39 0 -67.5 28t-28.5 67z" />
<glyph unicode="&#x22;" horiz-adv-x="647" d="M102 1499h166l-49 -442h-74zM383 1499h166l-49 -442h-74z" />
<glyph unicode="#" horiz-adv-x="1261" d="M80 455l20 108h240l53 244h-252l21 106h254l90 426h131l-90 -426h258l90 426h131l-90 -426h248l-21 -106h-250l-53 -244h262l-20 -108h-264l-97 -455h-131l97 455h-258l-97 -455h-131l96 455h-237zM471 563h258l53 244h-258z" />
<glyph unicode="$" horiz-adv-x="1083" d="M88 88l43 150q88 -61 166 -92t195 -35v530q-190 66 -280.5 147.5t-90.5 231.5q0 158 100.5 242t270.5 96v178h122v-176q174 -12 310 -76l-43 -158q-92 80 -267 97v-449q86 -29 143.5 -56.5t120 -74.5t93 -117.5t30.5 -165.5q0 -176 -107.5 -270t-279.5 -110v-177h-122 v174q-225 8 -404 111zM270 1026q0 -80 49.5 -122t172.5 -87v406q-222 -21 -222 -197zM614 117q230 31 230 215q0 170 -230 264v-479z" />
<glyph unicode="%" horiz-adv-x="1615" d="M90 977q0 166 82 275.5t219 109.5t219 -109.5t82 -267.5t-83 -270.5t-226 -112.5q-139 0 -216 107.5t-77 267.5zM205 989q0 -145 47 -220t133 -75q98 0 146.5 79t48.5 208q0 133 -49.5 211t-143.5 78q-182 0 -182 -281zM254 37l969 1339h153l-968 -1339h-154zM930 350 q0 166 82 275.5t219 109.5t219 -109.5t82 -267t-83 -270.5t-226 -113q-139 0 -216 107.5t-77 267.5zM1044 362q0 -145 47.5 -219.5t133.5 -74.5q98 0 146 78.5t48 207.5q0 133 -49 211t-143 78q-182 0 -183 -281z" />
<glyph unicode="&#x26;" horiz-adv-x="1425" d="M102 360q0 119 72 230.5t203 167.5q-125 143 -125 299q0 145 86 225t217 80q139 0 285 -90l-41 -146q-106 102 -240 103q-72 0 -118 -45t-46 -137q0 -123 105 -232l467 -483q32 76 32 152q0 120 -67 227l-103 -9v97l514 75v-126l-274 -25q63 -117 64 -242 q0 -133 -70 -250l225 -231h-172l-131 133q-158 -158 -410 -158q-223 0 -348 113t-125 272zM258 379q0 -127 93 -197.5t243 -70.5q186 0 299 116l-426 437q-96 -33 -152.5 -110t-56.5 -175z" />
<glyph unicode="'" horiz-adv-x="366" d="M102 1499h166l-49 -442h-74z" />
<glyph unicode="(" horiz-adv-x="608" d="M86 670q0 258 108.5 493.5t305.5 415.5l78 -27q-166 -186 -237 -394t-71 -488q0 -104 8.5 -189.5t36 -206t94 -244.5t166.5 -243l-75 -27q-197 176 -305.5 413t-108.5 497z" />
<glyph unicode=")" horiz-adv-x="608" d="M31 1552l78 27q197 -180 305 -415.5t108 -493.5q0 -260 -108.5 -496.5t-304.5 -413.5l-76 27q100 119 166.5 243t94.5 244.5t36 205.5t8 190q0 281 -70.5 488.5t-236.5 393.5z" />
<glyph unicode="*" horiz-adv-x="899" d="M127 985l262 117l-254 108l72 115l219 -168l-53 281h131l-21 -281l207 180l70 -116l-256 -117l274 -111l-67 -116l-228 165l35 -276h-127l31 278l-225 -172z" />
<glyph unicode="+" horiz-adv-x="1017" d="M104 436v107h351v331h106v-331h352v-107h-352v-352h-106v352h-351z" />
<glyph unicode="," horiz-adv-x="448" d="M117 -145l90 145h-62v154h162v-174l-160 -154z" />
<glyph unicode="-" horiz-adv-x="966" d="M137 436v107h692v-107h-692z" />
<glyph unicode="." horiz-adv-x="440" d="M125 72q0 39 27.5 68.5t66.5 29.5t68.5 -29.5t29.5 -68.5t-29.5 -67t-68.5 -28t-66.5 28t-27.5 67z" />
<glyph unicode="/" horiz-adv-x="876" d="M78 -117l569 1555h154l-570 -1555h-153z" />
<glyph unicode="0" horiz-adv-x="1329" d="M121 659q0 301 147.5 502t397.5 201q252 0 398 -199.5t146 -488.5q0 -184 -62.5 -341t-192.5 -257.5t-304 -100.5q-252 0 -391 197t-139 487zM291 680q0 -279 95 -424t269 -145q193 0 290 154.5t97 402.5q0 258 -97 408.5t-286 150.5q-190 0 -279 -146.5t-89 -400.5z" />
<glyph unicode="1" horiz-adv-x="649" d="M51 1126l395 226v-1352h-153v1077l-197 -94z" />
<glyph unicode="2" horiz-adv-x="1044" d="M98 0v143q74 94 203 229l216 228q87 92 156.5 210t69.5 218q0 199 -231 199q-90 0 -195.5 -29t-162.5 -72l-37 136q182 100 399 100q178 0 287.5 -92t109.5 -240q0 -106 -68.5 -230t-147.5 -210l-220 -231q-141 -144 -205 -216h656v-143h-830z" />
<glyph unicode="3" horiz-adv-x="1093" d="M74 102l41 138q160 -129 352 -129q166 0 253 76.5t87 224.5q0 254 -344 254h-55v116h63q127 0 198.5 65.5t71.5 178.5q0 201 -221 201q-90 0 -183 -29t-144 -72l-37 136q70 43 170 71.5t182 28.5q186 0 294.5 -91t108.5 -261q0 -82 -55 -156t-139 -119q260 -88 260 -340 q0 -180 -131 -300t-373 -120q-238 0 -399 127z" />
<glyph unicode="4" horiz-adv-x="1038" d="M61 430v143l572 779h164v-779h141v-143h-141v-430h-154v430h-582zM236 573h407v555z" />
<glyph unicode="5" horiz-adv-x="1101" d="M96 102l43 144q170 -135 359 -135q158 0 244.5 77.5t86.5 223.5q0 125 -73.5 191.5t-247.5 66.5q-158 -1 -291 -52l-59 31l75 713h695v-143h-566l-53 -437q150 33 262 33q190 0 308 -103.5t118 -285.5q0 -193 -130 -322t-371 -129q-238 0 -400 127z" />
<glyph unicode="6" horiz-adv-x="1128" d="M127 612q0 150 24.5 277t80 236.5t159 172t244.5 62.5q219 0 323 -98l-34 -136q-123 100 -287 101q-100 0 -175 -43t-115 -118t-58.5 -158t-18.5 -177q0 -39 2 -59l7 -2q81 151 332 151h3q98 0 174 -29.5t119 -73.5t71 -102.5t37 -108.5t9 -101q0 -170 -108.5 -300.5 t-325.5 -130.5q-463 0 -463 637zM307 395q0 -135 75 -215t208 -80q127 0 200.5 82.5t73.5 225.5q0 125 -61.5 206.5t-198.5 81.5q-147 0 -222 -83t-75 -218z" />
<glyph unicode="7" horiz-adv-x="931" d="M82 1219v143h829v-143q-211 -207 -391 -560.5t-180 -576.5q0 -57 2 -82h-178q-2 25 -2 80q0 240 178 564.5t401 574.5h-659z" />
<glyph unicode="8" horiz-adv-x="1140" d="M117 381q0 135 65.5 229.5t182.5 128.5v9q-78 29 -129.5 104.5t-51.5 181.5q0 147 102.5 237.5t282.5 90.5q178 0 281.5 -87t103.5 -235q0 -102 -50 -178.5t-130 -111.5v-9q117 -27 182.5 -122t65.5 -234q0 -180 -114.5 -295t-340.5 -115q-229 0 -339.5 116t-110.5 290z M283 371q0 -129 73.5 -200t211 -71t211 71t73.5 200q0 127 -70.5 214t-214.5 87q-145 0 -214.5 -87t-69.5 -214zM348 1026q0 -104 57.5 -167.5t162 -63.5t161.5 63.5t57 167.5q0 207 -219 207t-219 -207z" />
<glyph unicode="9" horiz-adv-x="1128" d="M104 930q0 170 109 300t326 130q462 0 462 -634q0 -153 -24.5 -280t-79.5 -236.5t-158.5 -172t-244.5 -62.5q-219 0 -324 99l35 135q123 -100 287 -100q100 0 174.5 43t114.5 117.5t58.5 157.5t18.5 177q0 40 -2 60l-6 2q-82 -152 -336 -152q-98 0 -174 29.5t-119 74 t-70.5 102.5t-37 108.5t-9.5 101.5zM264 928q0 -125 61.5 -207t198.5 -82q147 0 222 83t75 218t-74.5 215t-207.5 80q-127 0 -201 -82t-74 -225z" />
<glyph unicode=":" horiz-adv-x="466" d="M137 72q0 39 28 68.5t66.5 29.5t68.5 -29.5t30 -68.5t-30 -67t-68.5 -28t-66.5 28t-28 67zM137 836q0 39 28 67.5t66.5 28.5t68.5 -29t30 -67.5t-30 -67.5t-68.5 -29t-66.5 28t-28 69z" />
<glyph unicode=";" horiz-adv-x="487" d="M135 -145l90 145h-61v154h162v-174l-160 -154zM152 836q0 39 27.5 67.5t66.5 28.5t68.5 -29t29.5 -67.5t-29.5 -67.5t-68.5 -29t-66.5 28t-27.5 69z" />
<glyph unicode="&#x3c;" horiz-adv-x="845" d="M84 487v11l584 397l37 -129l-404 -268v-11l406 -272l-37 -131z" />
<glyph unicode="=" horiz-adv-x="1007" d="M158 281v106h692v-106h-692zM158 592v106h692v-106h-692z" />
<glyph unicode="&#x3e;" horiz-adv-x="845" d="M139 215l406 272v11l-404 268l37 129l584 -397v-11l-586 -403z" />
<glyph unicode="?" horiz-adv-x="854" d="M86 1305q55 43 138 71.5t159 28.5q164 0 260 -91t96 -241q0 -68 -30.5 -136.5t-74.5 -132t-87 -133t-75 -163.5t-32 -199h-131q0 115 29 212t71 165t84 128t70.5 127t28.5 134q0 86 -54.5 141.5t-156.5 55.5q-66 0 -140.5 -30t-117.5 -73zM285 74q0 39 27.5 67.5 t66.5 28.5t68.5 -28.5t29.5 -67.5t-29.5 -68t-68.5 -29t-66.5 29t-27.5 68z" />
<glyph unicode="@" horiz-adv-x="1476" d="M113 369q0 96 25.5 197.5t84 201.5t140 179t203.5 127t268 48q139 0 248.5 -44t175 -117.5t99.5 -161.5t34 -183q0 -188 -118 -326t-300 -138q-92 0 -121 36.5t-29 112.5q-33 -68 -86 -109.5t-106 -41.5q-68 0 -120 65.5t-52 179.5q0 174 121.5 288t269.5 114 q135 0 201 -68l-76 -364q-8 -61 -8 -72q0 -57 59 -57q104 0 172 113.5t68 258.5q0 170 -109.5 294t-325.5 124q-184 0 -322 -100.5t-202.5 -247t-64.5 -309.5q0 -240 139 -359t352 -119q150 0 265.5 52.5t181.5 111.5v-102q-53 -51 -185.5 -105.5t-281.5 -54.5 q-252 0 -426 160t-174 416zM594 369q0 -131 65 -131q51 0 113 75.5t78 155.5l49 248q-12 12 -51 12q-84 0 -144.5 -62.5t-85 -141.5t-24.5 -156z" />
<glyph unicode="A" horiz-adv-x="1327" d="M16 0l541 1352h186l594 -1352h-174l-198 455h-605l-180 -455h-164zM418 598h483l-254 582z" />
<glyph unicode="B" horiz-adv-x="1144" d="M201 0v1352q150 10 315 10q186 0 295 -91t109 -261q0 -172 -140 -262q262 -88 262 -353q0 -180 -131 -300t-372 -120q-162 0 -338 25zM354 662v-545q80 -6 178 -6q166 0 253 76.5t87 224.5q0 254 -344 254q-108 0 -174 -4zM354 784q39 -2 125 -2q127 0 199 65.5t72 178.5 q-1 201 -222 201q-68 0 -174 -4v-439z" />
<glyph unicode="C" horiz-adv-x="1314" d="M117 662q0 305 177 502.5t499 197.5q235 0 411 -88l-43 -148q-150 100 -381 101q-493 0 -493 -547q0 -283 124 -426t365 -143q256 0 412 127l41 -138q-207 -125 -459 -125q-215 0 -365.5 96.5t-219 248t-68.5 342.5z" />
<glyph unicode="D" horiz-adv-x="1441" d="M203 0v1352q348 10 446 10q293 0 469 -154q207 -186 207 -546q0 -190 -68.5 -342t-219 -248.5t-365.5 -96.5q-223 0 -469 25zM356 123q129 -12 310 -12q242 0 365.5 143t123.5 426q0 547 -493 547q-176 0 -306 -6v-1098z" />
<glyph unicode="E" horiz-adv-x="1079" d="M203 0v1352h741v-144h-588v-420h451v-143h-451v-502h629v-143h-782z" />
<glyph unicode="F" horiz-adv-x="995" d="M203 0v1352h731v-144h-578v-420h428v-143h-428v-645h-153z" />
<glyph unicode="G" horiz-adv-x="1376" d="M117 662q0 305 177 502.5t499 197.5q240 0 432 -88l-43 -148q-150 100 -402 101q-493 0 -493 -547q0 -283 124 -426t365 -143q168 0 314 65v381h153v-444q-203 -137 -473 -138q-215 0 -365.5 96.5t-219 248t-68.5 342.5z" />
<glyph unicode="H" horiz-adv-x="1441" d="M203 0v1352h153v-584h729v584h154v-1352h-154v625h-729v-625h-153z" />
<glyph unicode="I" horiz-adv-x="559" d="M203 0v1352h153v-1352h-153z" />
<glyph unicode="J" horiz-adv-x="561" d="M-27 -207q61 0 106.5 26.5t69 64.5t37 98.5t16.5 109.5t3 117v1143h153v-1145q0 -229 -91 -377.5t-265 -148.5z" />
<glyph unicode="K" horiz-adv-x="1218" d="M203 0v1352h153v-639q98 66 209 174q221 217 391 465h177q-184 -272 -463 -551q-31 -31 -80 -76l627 -725h-191l-549 627l-121 -92v-535h-153z" />
<glyph unicode="L" horiz-adv-x="997" d="M203 0v1352h153v-1209h605v-143h-758z" />
<glyph unicode="M" horiz-adv-x="1726" d="M203 0v1352h194l471 -1164l471 1164h185v-1352h-154v1022l-414 -1022h-184l-416 1024v-1024h-153z" />
<glyph unicode="N" horiz-adv-x="1441" d="M203 0v1352h174l708 -1112v1112h154v-1352h-174l-709 1110v-1110h-153z" />
<glyph unicode="O" horiz-adv-x="1548" d="M115 659q0 303 176 503t483 200t483.5 -198.5t176.5 -489.5q0 -137 -43 -261t-125 -222.5t-213 -157t-293 -58.5q-209 0 -358.5 96.5t-218 248t-68.5 339.5zM285 680q0 -281 123 -425t356 -144q254 0 378 153.5t124 403.5q0 260 -124 409.5t-374 149.5 q-252 0 -367.5 -145.5t-115.5 -401.5z" />
<glyph unicode="P" horiz-adv-x="1071" d="M203 0v1352q240 10 305 10q225 0 358 -112.5t133 -321.5q0 -182 -119.5 -301t-349.5 -119q-96 0 -174 6v-514h-153zM356 649q74 -6 168 -6q305 0 305 301q0 283 -309 283q-66 0 -164 -4v-574z" />
<glyph unicode="Q" horiz-adv-x="1552" d="M117 659q0 303 176 503t483 200t483.5 -198.5t176.5 -489.5q0 -180 -69 -332t-215 -253t-349 -112q82 -10 270.5 -82.5t298.5 -72.5q82 0 174 39l-39 -131q-63 -33 -151 -33q-98 0 -214 45t-222.5 91t-180.5 46q-141 0 -252 -84l-28 96q102 76 239 86q-281 20 -431 213 t-150 469zM287 674q0 -276 123.5 -419.5t359.5 -143.5q252 0 375 154.5t123 408.5q0 256 -125 404.5t-377 148.5q-248 0 -363.5 -146.5t-115.5 -406.5z" />
<glyph unicode="R" horiz-adv-x="1202" d="M203 0v1352q240 10 305 10q225 0 358 -101.5t133 -287.5q0 -135 -76.5 -236.5t-224.5 -140.5l519 -596h-191l-506 578q-90 0 -164 6v-584h-153zM356 717q49 -4 168 -4q305 0 305 276q0 238 -309 238q-66 0 -164 -4v-506z" />
<glyph unicode="S" horiz-adv-x="1132" d="M102 88l43 150q94 -63 178.5 -95t213.5 -32q176 0 259 59t83 162q0 53 -24 97t-53.5 72.5t-86 57.5t-92 42t-101.5 34q-197 66 -292 148.5t-95 236.5q0 174 120 258t316 84q217 0 387 -78l-43 -158q-117 100 -352 101q-278 0 -278 -201q0 -94 68.5 -138t273.5 -112 q94 -31 153.5 -58.5t125 -74.5t98 -117.5t32.5 -165.5q0 -197 -139 -291t-348 -94q-244 0 -447 113z" />
<glyph unicode="T" horiz-adv-x="1095" d="M39 1208v144h1018v-144h-432v-1208h-154v1208h-432z" />
<glyph unicode="U" horiz-adv-x="1404" d="M186 455v897h154v-828q0 -413 365 -413h2q369 0 368 413v828h144v-897q0 -211 -131.5 -344.5t-380.5 -133.5q-272 0 -396.5 130.5t-124.5 347.5z" />
<glyph unicode="V" horiz-adv-x="1327" d="M-10 1352h174l514 -1180l469 1180h164l-537 -1352h-194z" />
<glyph unicode="W" horiz-adv-x="2217" d="M0 1352h174l455 -1157l395 1157h174l420 -1153l412 1153h163l-481 -1352h-194l-410 1118l-381 -1118h-195z" />
<glyph unicode="X" horiz-adv-x="1327" d="M33 0l536 698l-506 654h183l422 -547l422 547h176l-510 -662l536 -690h-182l-453 584l-448 -584h-176z" />
<glyph unicode="Y" horiz-adv-x="1161" d="M-20 1352h182l428 -650l414 650h178l-523 -797v-555h-153v547z" />
<glyph unicode="Z" horiz-adv-x="1138" d="M90 0v143l754 1065h-723v144h897v-144l-754 -1065h785v-143h-959z" />
<glyph unicode="[" horiz-adv-x="557" d="M168 -195v1729h328v-86h-195v-1557h195v-86h-328z" />
<glyph unicode="\" horiz-adv-x="872" d="M76 1438h149l570 -1555h-150z" />
<glyph unicode="]" horiz-adv-x="557" d="M61 -109h195v1557h-195v86h328v-1729h-328v86z" />
<glyph unicode="^" horiz-adv-x="712" d="M117 1161l6 15l225 202h17l225 -202l6 -15l-12 -39l-15 -6l-213 125l-213 -125l-14 6z" />
<glyph unicode="_" horiz-adv-x="956" d="M35 0h887v-106h-887v106z" />
<glyph unicode="`" horiz-adv-x="448" d="M0 1321q0 68 72 72l370 -207l7 -15l-13 -41l-16 -6l-412 158q-8 18 -8 39z" />
<glyph unicode="a" horiz-adv-x="1021" d="M84 252q0 90 41 156.5t98.5 101.5t138 56.5t143 26.5t132.5 5h92v25q0 131 -84 188q-63 41 -180 41q-141 0 -279 -82l-32 123q137 80 327 80q168 0 262 -60q129 -82 129 -272v-641h-112l-17 168h-8q-51 -80 -159.5 -136.5t-221.5 -56.5q-129 0 -199.5 77t-70.5 200z M236 260q0 -78 42.5 -121t118.5 -43q88 0 182.5 55.5t149.5 151.5v191h-18q-78 0 -136.5 -4.5t-126 -17.5t-110.5 -37.5t-72.5 -68.5t-29.5 -106z" />
<glyph unicode="b" horiz-adv-x="1181" d="M162 0v1516h143v-750q27 90 119 148.5t221 58.5q209 0 322.5 -144.5t113.5 -359.5q0 -209 -107 -351.5t-306 -142.5q-123 0 -219.5 55.5t-149.5 137.5h-8l-17 -168h-112zM305 303q57 -96 151.5 -151.5t194.5 -55.5q143 0 211 107.5t68 259.5q0 174 -83 281.5t-222 107.5 q-109 0 -196 -66.5t-124 -181.5v-301z" />
<glyph unicode="c" horiz-adv-x="1021" d="M98 479q0 213 123 353.5t365 140.5q217 0 344 -82l-35 -121q-47 37 -137 63.5t-174 26.5q-168 0 -251 -105.5t-83 -262.5q0 -170 92 -287t256 -117q82 0 169 35t144 88l29 -133q-158 -102 -369 -103q-227 0 -350 144.5t-123 359.5z" />
<glyph unicode="d" horiz-adv-x="1181" d="M100 469q0 215 114 359.5t323 144.5q133 0 223 -58.5t117 -148.5v750h143v-1516h-113l-16 168h-8q-53 -82 -149.5 -137.5t-219.5 -55.5q-199 0 -306.5 142.5t-107.5 351.5zM252 463q0 -152 67.5 -259.5t210.5 -107.5q100 0 195.5 54.5t151.5 152.5v301 q-37 115 -124 181.5t-196 66.5q-139 0 -222 -107.5t-83 -281.5z" />
<glyph unicode="e" horiz-adv-x="1060" d="M96 471q0 213 130.5 357.5t355.5 144.5q180 0 278 -91t98 -257q0 -88 -18 -123h-690v-21q0 -168 86 -282.5t247.5 -114.5t331.5 119l25 -117q-176 -111 -373 -111q-219 0 -345 143.5t-126 352.5zM264 610h559q2 12 2 37q0 100 -73 155.5t-177 55.5q-127 0 -204.5 -67.5 t-106.5 -180.5z" />
<glyph unicode="f" horiz-adv-x="612" d="M53 846v76l158 18q0 352 84 485q68 100 215 101q111 0 178 -35l-35 -121q-2 0 -77.5 24.5t-116.5 24.5q-61 0 -84 -70.5t-23 -271.5q0 -43 1 -78.5t1 -56.5h221v-96h-221v-846h-143v846h-158z" />
<glyph unicode="g" horiz-adv-x="1042" d="M72 -236q0 80 58 154t138 105v8q-84 39 -84 106.5t111 145.5v8q-92 37 -138 120t-46 187q0 162 105.5 268.5t279.5 106.5q119 0 196 -41q184 4 301 37l11 -8l-15 -113l-10 -10l-186 8l-2 -6q49 -41 75.5 -109.5t26.5 -138.5q0 -141 -103.5 -239.5t-285.5 -98.5 q-16 0 -39 1t-31 1q-39 -12 -62.5 -36.5t-23.5 -43.5q0 -45 117 -57l199 -21q141 -14 231 -85.5t90 -188.5q0 -141 -106 -230q-123 -102 -365 -102q-203 0 -322.5 79t-119.5 193zM217 -211q0 -78 83 -124t224.5 -46t229.5 48t88 136t-96.5 130.5t-307.5 56.5 q-88 0 -154.5 -63.5t-66.5 -137.5zM256 610q0 -100 66.5 -177t181.5 -77q109 0 174 69t65 167q0 104 -68.5 189t-182.5 85q-111 0 -173.5 -78.5t-62.5 -177.5z" />
<glyph unicode="h" d="M162 0v1516h143v-750q27 90 119 148.5t223 58.5q143 0 231.5 -79t88.5 -253v-641h-144v623q0 229 -196 229q-106 0 -195.5 -66.5t-126.5 -181.5v-604h-143z" />
<glyph unicode="i" horiz-adv-x="466" d="M131 1286q0 43 29.5 75t72.5 32q41 0 74 -33t33 -74q0 -43 -32 -72.5t-75 -29.5t-72.5 29.5t-29.5 72.5zM162 0v942h143v-942h-143z" />
<glyph unicode="j" horiz-adv-x="466" d="M-86 -403q12 -6 45 -7q66 0 110 37t62.5 104.5t24.5 127t6 137.5v946h143v-948q0 -223 -82 -372.5t-231 -149.5q-33 0 -45 6zM131 1286q0 43 29.5 75t72.5 32q41 0 74 -33t33 -74q0 -43 -32 -72.5t-75 -29.5t-72.5 29.5t-29.5 72.5z" />
<glyph unicode="k" horiz-adv-x="974" d="M162 0v1516h143v-971l414 397h164l-336 -332l401 -610h-164l-338 512l-141 -141v-371h-143z" />
<glyph unicode="l" horiz-adv-x="491" d="M174 0v1516h143v-1516h-143z" />
<glyph unicode="m" horiz-adv-x="1761" d="M162 0v942h112l17 -176h8q27 90 115 148.5t217 58.5q123 0 206 -55.5t105 -151.5q104 207 348 207q141 0 231.5 -79t90.5 -253v-641h-144v623q0 119 -54 174t-146 55q-104 0 -188.5 -65.5t-121.5 -182.5v-604h-143v623q0 119 -54 174t-147 55q-104 0 -188 -65.5 t-121 -182.5v-604h-143z" />
<glyph unicode="n" d="M162 0v942h112l17 -176h8q27 90 121 148.5t227 58.5q143 0 231.5 -79t88.5 -253v-641h-144v623q0 229 -196 229q-106 0 -195.5 -66.5t-126.5 -181.5v-604h-143z" />
<glyph unicode="o" horiz-adv-x="1148" d="M98 475q0 213 122 355.5t353 142.5q236 0 357 -145.5t121 -362.5q0 -213 -119 -351.5t-350 -138.5q-236 0 -360 142.5t-124 357.5zM250 481q0 -168 84 -282.5t246 -114.5q158 0 238.5 107.5t80.5 271.5q0 168 -85 281.5t-247 113.5q-158 0 -237.5 -106.5t-79.5 -270.5z " />
<glyph unicode="p" horiz-adv-x="1181" d="M162 -532v1474h112l17 -176h8q55 86 151.5 146.5t217.5 60.5q199 0 306 -142.5t107 -351.5q0 -215 -113.5 -359.5t-322.5 -144.5q-133 0 -223 58.5t-117 148.5v-714h-143zM305 344q35 -113 131 -180.5t207 -67.5q137 0 212 105.5t75 267.5t-76 272.5t-223 110.5 q-98 0 -183.5 -53.5t-142.5 -153.5v-301z" />
<glyph unicode="q" horiz-adv-x="1181" d="M100 477q0 209 107.5 352.5t300.5 143.5q238 0 375 -207h8l16 176h113v-1474h-143v714q-27 -90 -117 -148.5t-223 -58.5q-209 0 -323 144.5t-114 357.5zM252 469q0 -162 74.5 -267.5t212.5 -105.5q111 0 207 67.5t131 180.5v301q-57 100 -142.5 153.5t-183.5 53.5 q-147 0 -223 -110.5t-76 -272.5z" />
<glyph unicode="r" horiz-adv-x="737" d="M162 0v942h112l17 -207h8q33 104 100.5 171t169.5 67q39 0 82.5 -13.5t61.5 -33.5l-43 -135q-70 40 -126 40h-3q-78 0 -144.5 -81.5t-91.5 -198.5v-551h-143z" />
<glyph unicode="s" horiz-adv-x="907" d="M98 78l37 133q70 -63 159 -96t167 -33q96 0 152.5 48t56.5 108q0 135 -144 170l-196 49q-223 57 -224 241q0 125 93.5 200t249.5 75q201 0 327 -84l-39 -123q-45 37 -127 64.5t-172 27.5q-186 0 -186 -133q0 -115 156 -150l145 -32q266 -59 266 -264 q0 -131 -101.5 -217.5t-271.5 -86.5q-201 0 -348 103z" />
<glyph unicode="t" horiz-adv-x="655" d="M49 846v76l162 20l31 285h108v-285h221v-96h-221v-653q0 -63 18.5 -85t61.5 -22q82 0 150 49l28 -108q-109 -49 -215 -50q-61 0 -101 17.5t-57.5 52.5t-22.5 65.5t-5 75.5v658h-158z" />
<glyph unicode="u" d="M150 301v641h143v-623q0 -223 196 -223q106 0 196.5 63.5t125.5 178.5v604h143v-942h-112l-17 176h-8q-27 -88 -121 -144.5t-227 -56.5q-319 0 -319 326z" />
<glyph unicode="v" horiz-adv-x="1067" d="M14 942h156l367 -807l366 807h150l-428 -942h-183z" />
<glyph unicode="w" horiz-adv-x="1677" d="M27 942h151l295 -803l295 803h152l276 -803l313 803h146l-367 -942h-194l-256 737l-271 -737h-194z" />
<glyph unicode="x" horiz-adv-x="1058" d="M37 0l405 481l-385 461h174l299 -358l297 358h174l-387 -457l408 -485h-174l-322 383l-315 -383h-174z" />
<glyph unicode="y" horiz-adv-x="1062" d="M6 942h170l375 -784l336 784h162l-433 -950l-39 -87q-10 -22 -45.5 -90.5t-59 -101t-67 -87t-83 -81t-93 -48t-108.5 -21.5q-25 0 -43 6l-27 135q25 -6 43 -6q88 0 148 41q131 92 235 379z" />
<glyph unicode="z" horiz-adv-x="862" d="M90 0v123l498 698h-477v121h643v-119l-502 -702h522v-121h-684z" />
<glyph unicode="{" horiz-adv-x="559" d="M63 639v61q51 2 84 29t45.5 75t15.5 79.5t3 85.5q0 43 -2 157.5t-2 139.5q0 145 55 217.5t219 72.5l4 -43q-82 -8 -107.5 -60t-25.5 -148q0 -23 2 -138.5t2 -154.5q0 -297 -192 -342q192 -45 192 -339q0 -42 -2 -158t-2 -138q0 -96 25.5 -148.5t107.5 -60.5l-4 -43 q-164 0 -219 72.5t-55 218.5q0 27 2 144.5t2 158.5t-1 66.5t-9 66.5t-22.5 64.5t-44.5 43t-71 21.5z" />
<glyph unicode="|" horiz-adv-x="458" d="M166 -233v1806h127v-1806h-127z" />
<glyph unicode="}" horiz-adv-x="559" d="M74 -174q82 8 107.5 60.5t25.5 148.5q0 23 -2 138.5t-2 154.5q0 297 192 342q-192 45 -192 339q0 42 2 157q2 116 2 139q0 96 -25.5 148t-107.5 60l4 43q164 0 219 -72.5t55 -217.5q0 -25 -2 -139.5t-2 -157.5q0 -53 3 -85t15.5 -80t45 -75t84.5 -29v-61 q-41 -2 -71 -21.5t-44 -43t-22.5 -64.5t-9.5 -66.5t-1 -66.5t2 -159t2 -144q0 -145 -55 -218t-219 -73z" />
<glyph unicode="~" horiz-adv-x="987" d="M139 414q0 41 54.5 99t132.5 58q29 0 165 -9t201 -9q96 0 133 53l25 -16q0 -14 -16.5 -49t-61.5 -72t-102 -37q-25 0 -184.5 9.5t-207 9.5t-69 -11.5t-43.5 -40.5z" />
<glyph unicode="&#xa1;" horiz-adv-x="454" d="M129 -446l49 1089h96l54 -1089h-199zM133 879q0 39 28.5 66.5t67.5 27.5q37 0 67 -29t30 -65q0 -39 -30 -69t-67 -30q-39 0 -67.5 30t-28.5 69z" />
<glyph unicode="&#xa2;" horiz-adv-x="1021" d="M78 449q0 186 107.5 314t322.5 146v273h123v-275q178 -14 278 -78l-35 -120q-90 63 -243 84v-703q160 25 260 121l29 -133q-121 -78 -289 -98v-261h-123v258q-207 14 -318.5 147.5t-111.5 324.5zM229 461q0 -139 74 -241.5t205 -125.5v701q-141 -18 -210 -110.5 t-69 -223.5z" />
<glyph unicode="&#xa3;" horiz-adv-x="1165" d="M72 33q289 127 288 479v31h-200v106h192q-4 41 -15 118t-17.5 132t-6.5 96q0 127 61.5 213t145.5 120t182 34q188 0 320 -100l-37 -136q-41 43 -120 72t-158 29q-209 0 -209 -228q0 -49 14 -168.5t18 -181.5h285v-106h-280q-8 -246 -166 -432l4 -7q78 -4 253 -45t269 -41 q90 0 182 39l-39 -149q-80 -41 -166 -41q-98 0 -287.5 67.5t-295.5 67.5q-111 0 -189 -65z" />
<glyph unicode="&#xa5;" horiz-adv-x="1331" d="M63 1352h183l428 -650l413 650h179l-404 -615h225v-106h-294l-50 -76v-35h344v-102h-344v-418h-153v418h-342v98l342 2v29l-55 84h-287v98h221z" />
<glyph unicode="&#xa8;" horiz-adv-x="450" d="M0 1292q0 37 24.5 64.5t59.5 27.5t60.5 -27.5t25.5 -64.5t-25.5 -63.5t-60.5 -26.5t-59.5 25.5t-24.5 64.5zM281 1292q0 37 24.5 64.5t59 27.5t60.5 -27.5t26 -64.5t-26 -63.5t-60.5 -26.5t-59 25.5t-24.5 64.5z" />
<glyph unicode="&#xa9;" horiz-adv-x="1476" d="M117 725q0 254 181 434t439 180t440.5 -180t182.5 -434q0 -260 -183.5 -439.5t-449.5 -179.5q-250 0 -430 182.5t-180 436.5zM213 725q0 -223 150.5 -379t365.5 -156q229 0 382 154t153 381q0 221 -153 375.5t-374 154.5t-372.5 -154.5t-151.5 -375.5zM391 729.5 q0 149.5 85 247.5t255 98q154 0 242 -57l-25 -105q-33 25 -95 43.5t-122 18.5q-109 0 -162 -67.5t-53 -170.5q0 -111 59.5 -185.5t163.5 -74.5q131 0 222 86l18 -114q-111 -72 -258 -72q-158 0 -244 101.5t-86 251z" />
<glyph unicode="&#xab;" horiz-adv-x="952" d="M76 487v11l274 362h162l-295 -362v-11l295 -362h-164zM408 487v11l274 362h162l-295 -362v-11l295 -362h-164z" />
<glyph unicode="&#xad;" horiz-adv-x="966" d="M137 436v107h692v-107h-692z" />
<glyph unicode="&#xae;" horiz-adv-x="1476" d="M117 725q0 254 181 434t439 180t440.5 -180t182.5 -434q0 -260 -183.5 -439.5t-449.5 -179.5q-250 0 -430 182.5t-180 436.5zM213 725q0 -223 150.5 -379t365.5 -156q229 0 382 154t153 381q0 221 -153 375.5t-374 154.5t-372.5 -154.5t-151.5 -375.5zM537 412v673 q94 4 170 5q123 0 187 -42t64 -149q0 -63 -43 -113.5t-116 -70.5l260 -303h-109l-256 297h-63v-297h-94zM631 782q25 -2 82 -2q68 0 106.5 33t38.5 94q0 105 -147 105q-14 0 -41 -1t-39 -1v-228z" />
<glyph unicode="&#xb4;" horiz-adv-x="448" d="M0 1171l6 15l369 207q35 -2 54.5 -21.5t19.5 -50.5q0 -20 -9 -39l-413 -158l-15 6z" />
<glyph unicode="&#xb8;" horiz-adv-x="413" d="M0 -365l27 48h14q66 -25 141 -25q111 0 111 82q0 94 -107 94q-47 0 -98 -14l-18 22l104 158h70l-62 -104q35 8 70 8q70 0 116 -42t46 -106q0 -70 -65.5 -121t-160 -51t-186.5 39z" />
<glyph unicode="&#xbb;" horiz-adv-x="952" d="M109 125l294 362v11l-294 362h161l275 -362v-11l-273 -362h-163zM440 125l295 362v11l-295 362h162l275 -362v-11l-273 -362h-164z" />
<glyph unicode="&#xbf;" horiz-adv-x="837" d="M104 -123q0 68 31 136.5t75 132t87 133t74.5 164t31.5 198.5h132q0 -115 -29 -212t-71 -164.5t-84 -128t-70.5 -127t-28.5 -134.5q0 -86 54 -141.5t157 -55.5q66 0 140.5 30t117.5 73l37 -135q-55 -43 -138 -72t-159 -29q-164 0 -260.5 91.5t-96.5 240.5zM367 876.5 q0 38.5 29.5 67.5t68.5 29t66.5 -29t27.5 -67.5t-27.5 -67.5t-66.5 -29t-68.5 29t-29.5 67.5z" />
<glyph unicode="&#xc1;" horiz-adv-x="1327" d="M16 0l541 1352h186l594 -1352h-174l-198 455h-605l-180 -455h-164zM418 598h483l-254 582zM444 1518l7 14l368 205q72 -4 72 -70q0 -25 -6 -39l-414 -158l-14 7z" />
<glyph unicode="&#xc9;" horiz-adv-x="1079" d="M203 0v1352h741v-144h-588v-420h451v-143h-451v-502h629v-143h-782zM365 1518l6 14l370 205q33 -2 52.5 -21.5t19.5 -48.5q0 -20 -8 -39l-414 -158l-14 7z" />
<glyph unicode="&#xcd;" horiz-adv-x="559" d="M72 1518l6 14l371 205q71 -4 71 -68q0 -22 -8 -41l-412 -158l-16 7zM203 0v1352h153v-1352h-153z" />
<glyph unicode="&#xd1;" horiz-adv-x="1441" d="M203 0v1352h174l708 -1112v1112h154v-1352h-174l-709 1110v-1110h-153zM375 1540q51 156 186 156q74 0 160 -14.5t133 -14.5q92 0 133 53l25 -16q-14 -66 -58.5 -112t-122.5 -46q-57 0 -166.5 14.5t-150.5 14.5q-47 0 -68.5 -11.5t-44.5 -39.5z" />
<glyph unicode="&#xd3;" horiz-adv-x="1548" d="M115 659q0 303 176 503t483 200t483.5 -198.5t176.5 -489.5q0 -137 -43 -261t-125 -222.5t-213 -157t-293 -58.5q-209 0 -358.5 96.5t-218 248t-68.5 339.5zM285 680q0 -281 123 -425t356 -144q254 0 378 153.5t124 403.5q0 260 -124 409.5t-374 149.5 q-252 0 -367.5 -145.5t-115.5 -401.5zM629 1518l6 14l369 205q71 -4 71 -68q0 -18 -6 -41l-414 -158l-16 7z" />
<glyph unicode="&#xda;" horiz-adv-x="1404" d="M186 455v897h154v-828q0 -413 365 -413h2q369 0 368 413v828h144v-897q0 -211 -131.5 -344.5t-380.5 -133.5q-272 0 -396.5 130.5t-124.5 347.5zM508 1518l6 14l371 205q71 -4 71 -68q0 -22 -8 -41l-411 -158l-17 7z" />
<glyph unicode="&#xdc;" horiz-adv-x="1404" d="M186 455v897h154v-828q0 -413 365 -413h2q369 0 368 413v828h144v-897q0 -211 -131.5 -344.5t-380.5 -133.5q-272 0 -396.5 130.5t-124.5 347.5zM481 1626q0 37 24.5 64.5t59.5 27.5t60.5 -27.5t25.5 -64.5t-25.5 -63.5t-60.5 -26.5t-59.5 25.5t-24.5 64.5zM803 1626 q0 37 24.5 64.5t59.5 27.5t60.5 -27.5t25.5 -64.5t-25.5 -63.5t-60.5 -26.5t-59.5 25.5t-24.5 64.5z" />
<glyph unicode="&#xe1;" horiz-adv-x="1021" d="M84 252q0 90 41 156.5t98.5 101.5t138 56.5t143 26.5t132.5 5h92v25q0 131 -84 188q-63 41 -180 41q-141 0 -279 -82l-32 123q137 80 327 80q168 0 262 -60q129 -82 129 -272v-641h-112l-17 168h-8q-51 -80 -159.5 -136.5t-221.5 -56.5q-129 0 -199.5 77t-70.5 200z M236 260q0 -78 42.5 -121t118.5 -43q88 0 182.5 55.5t149.5 151.5v191h-18q-78 0 -136.5 -4.5t-126 -17.5t-110.5 -37.5t-72.5 -68.5t-29.5 -106zM369 1171l6 15l368 207q35 -2 54.5 -21.5t19.5 -50.5q0 -20 -8 -39l-414 -158l-14 6z" />
<glyph unicode="&#xe9;" horiz-adv-x="1060" d="M96 471q0 213 130.5 357.5t355.5 144.5q180 0 278 -91t98 -257q0 -88 -18 -123h-690v-21q0 -168 86 -282.5t248 -114.5q172 0 329 111l27 -109q-176 -111 -373 -111q-219 0 -345 143.5t-126 352.5zM264 610h559q2 12 2 37q0 100 -73 155.5t-177 55.5q-127 0 -204.5 -67.5 t-106.5 -180.5zM395 1171l6 15l369 207q72 -4 72 -72q0 -25 -6 -39l-414 -158l-14 6z" />
<glyph unicode="&#xed;" horiz-adv-x="466" d="M33 1171l6 15l369 207q35 -2 54 -21.5t19 -50.5q0 -20 -8 -39l-414 -158l-14 6zM162 0v942h143v-942h-143z" />
<glyph unicode="&#xf1;" d="M162 0v942h112l17 -176h8q27 90 121 148.5t227 58.5q143 0 231.5 -79t88.5 -253v-641h-144v623q0 229 -196 229q-106 0 -195.5 -66.5t-126.5 -181.5v-604h-143zM248 1194q51 156 186 156q74 0 160 -14.5t133 -14.5q92 0 133 53l25 -16q-14 -66 -58.5 -112t-121.5 -46 q-57 0 -167 14.5t-151 14.5q-47 0 -68.5 -11.5t-44.5 -39.5z" />
<glyph unicode="&#xf3;" horiz-adv-x="1148" d="M98 475q0 213 122 355.5t353 142.5q236 0 357 -145.5t121 -362.5q0 -213 -119 -351.5t-350 -138.5q-236 0 -360 142.5t-124 357.5zM250 481q0 -168 84 -282.5t246 -114.5q158 0 238.5 107.5t80.5 271.5q0 168 -85 281.5t-247 113.5q-158 0 -237.5 -106.5t-79.5 -270.5z M410 1171l6 15l368 207q35 -2 54.5 -21.5t19.5 -50.5q0 -20 -8 -39l-414 -158l-14 6z" />
<glyph unicode="&#xfa;" d="M150 301v641h143v-623q0 -223 196 -223q106 0 196.5 63.5t125.5 178.5v604h143v-942h-112l-17 176h-8q-27 -88 -121 -144.5t-227 -56.5q-319 0 -319 326zM340 1171l6 15l369 207q71 -4 71 -70q0 -20 -6 -41l-413 -158l-17 6z" />
<glyph unicode="&#xfc;" d="M150 301v641h143v-623q0 -223 196 -223q106 0 196.5 63.5t125.5 178.5v604h143v-942h-112l-17 176h-8q-27 -88 -121 -144.5t-227 -56.5q-319 0 -319 326zM299 1282q0 37 24.5 64.5t59.5 27.5t60.5 -27.5t25.5 -64.5t-25.5 -63.5t-60.5 -26.5t-59.5 25.5t-24.5 64.5z M621 1282q0 37 24.5 64.5t59 27.5t60.5 -27.5t26 -64.5t-26 -63.5t-60.5 -26.5t-59 25.5t-24.5 64.5z" />
<glyph unicode="&#x2c6;" horiz-adv-x="479" d="M0 1161l6 15l225 202h17l225 -202l6 -15l-12 -39l-14 -6l-213 125l-213 -125l-15 6z" />
<glyph unicode="&#x2da;" horiz-adv-x="335" d="M0 1249q0 59 46 104.5t122 45.5t122 -46t46 -108q0 -57 -44 -100t-122 -43q-80 0 -125 45t-45 102zM76 1251q0 -39 26.5 -69.5t67.5 -30.5q39 0 63.5 28.5t24.5 65.5q0 39 -26.5 72t-65.5 33q-41 0 -65.5 -30t-24.5 -69z" />
<glyph unicode="&#x2dc;" horiz-adv-x="636" d="M0 1194q51 156 186 156q74 0 160 -14.5t133 -14.5q94 0 133 53l25 -16q-14 -66 -58 -112t-122 -46q-57 0 -167 14.5t-151 14.5q-47 0 -68.5 -11.5t-43.5 -39.5z" />
<glyph unicode="&#x2000;" horiz-adv-x="868" />
<glyph unicode="&#x2001;" horiz-adv-x="1737" />
<glyph unicode="&#x2002;" horiz-adv-x="868" />
<glyph unicode="&#x2003;" horiz-adv-x="1737" />
<glyph unicode="&#x2004;" horiz-adv-x="579" />
<glyph unicode="&#x2005;" horiz-adv-x="434" />
<glyph unicode="&#x2006;" horiz-adv-x="289" />
<glyph unicode="&#x2007;" horiz-adv-x="289" />
<glyph unicode="&#x2008;" horiz-adv-x="217" />
<glyph unicode="&#x2009;" horiz-adv-x="347" />
<glyph unicode="&#x200a;" horiz-adv-x="96" />
<glyph unicode="&#x2010;" horiz-adv-x="966" d="M137 436v107h692v-107h-692z" />
<glyph unicode="&#x2011;" horiz-adv-x="966" d="M137 436v107h692v-107h-692z" />
<glyph unicode="&#x2012;" horiz-adv-x="966" d="M137 436v107h692v-107h-692z" />
<glyph unicode="&#x2013;" horiz-adv-x="1122" d="M137 436v107h848v-107h-848z" />
<glyph unicode="&#x2014;" horiz-adv-x="1589" d="M137 436v107h1315v-107h-1315z" />
<glyph unicode="&#x2018;" horiz-adv-x="374" d="M74 1329v174h162v-153h-62l90 -146l-31 -28z" />
<glyph unicode="&#x2019;" horiz-adv-x="374" d="M111 1204l90 146h-62v153h162v-174l-160 -153z" />
<glyph unicode="&#x201a;" horiz-adv-x="448" d="M117 -145l90 145h-62v154h162v-174l-160 -154z" />
<glyph unicode="&#x201c;" horiz-adv-x="681" d="M74 1329v174h162v-153h-62l90 -146l-31 -28zM381 1329v174h162v-153h-62l90 -146l-30 -28z" />
<glyph unicode="&#x201d;" horiz-adv-x="706" d="M90 1495l31 29l160 -154v-174h-162v154h61zM397 1495l31 29l160 -154v-174h-162v154h61z" />
<glyph unicode="&#x201e;" horiz-adv-x="778" d="M117 -145l90 145h-62v154h162v-174l-160 -154zM446 -145l91 145h-62v154h162v-174l-160 -154z" />
<glyph unicode="&#x2026;" horiz-adv-x="1214" d="M125 72q0 39 27.5 68.5t66.5 29.5t68.5 -29.5t29.5 -68.5t-29.5 -67t-68.5 -28t-66.5 28t-27.5 67zM512 72q0 39 27.5 68.5t66.5 29.5t69 -29.5t30 -68.5t-30 -67t-69 -28t-66.5 28t-27.5 67zM899 72q0 39 27.5 68.5t66.5 29.5t69 -29.5t30 -68.5t-30 -67t-69 -28 t-66.5 28t-27.5 67z" />
<glyph unicode="&#x202f;" horiz-adv-x="347" />
<glyph unicode="&#x2039;" horiz-adv-x="620" d="M76 487v11l274 362h162l-295 -362v-11l295 -362h-164z" />
<glyph unicode="&#x203a;" horiz-adv-x="620" d="M109 125l294 362v11l-294 362h161l275 -362v-11l-273 -362h-163z" />
<glyph unicode="&#x205f;" horiz-adv-x="434" />
<glyph unicode="&#x20ac;" horiz-adv-x="1273" d="M84 522v107h156v33q0 51 2 75h-158v107h172q41 233 183.5 375.5t365.5 142.5q205 0 350 -88l-43 -148q-129 100 -319 101q-322 0 -373 -383h522v-107h-532v-108h532v-107h-524q53 -411 368 -411h2q215 0 351 127l41 -138q-184 -125 -398 -125q-231 0 -367 152t-167 395 h-164z" />
<glyph unicode="&#x2122;" horiz-adv-x="1421" d="M135 1257v80h440v-80h-172v-501h-96v501h-172zM651 756v581h99l200 -495l199 495h96v-581h-80v428l-172 -428h-92l-172 430v-430h-78z" />
<glyph unicode="&#xe000;" horiz-adv-x="940" d="M0 940h940v-940h-940v940z" />
</font>
</defs>
</svg>
