<?xml version="1.0" standalone="no"?>
<!DOCTYPE svg PUBLIC "-//W3C//DTD SVG 1.1//EN" "http://www.w3.org/Graphics/SVG/1.1/DTD/svg11.dtd" >
<svg xmlns="http://www.w3.org/2000/svg">
<metadata>
This is a custom SVG webfont generated by Font Squirrel.
Copyright   : Copyright c 2011 Sorkin Type Co wwwsorkintypecomwith Reserved Font Name Pompiere
Designer    : Karolina Lach
Foundry     : Sorkin Type Co
Foundry URL : wwwsorkintypecom
</metadata>
<defs>
<font id="PompiereRegular" horiz-adv-x="622" >
<font-face units-per-em="2048" ascent="1638" descent="-410" />
<missing-glyph horiz-adv-x="364" />
<glyph unicode=" "  horiz-adv-x="364" />
<glyph unicode="&#x09;" horiz-adv-x="364" />
<glyph unicode="&#xa0;" horiz-adv-x="364" />
<glyph unicode="!" horiz-adv-x="496" d="M150 61q0 39 27.5 62t62.5 23t62 -22t27 -63q0 -44 -29.5 -64.5t-66.5 -20.5q-32 0 -57.5 22.5t-25.5 62.5zM181 1691q-3 36 17 56.5t47 20.5q26 0 45 -20.5t16 -56.5q-18 -244 -18 -758q0 -461 8 -547q3 -30 -13 -48t-38 -18q-21 0 -34.5 15.5t-12.5 45.5q5 111 5 360 q0 655 -22 950z" />
<glyph unicode="&#x22;" horiz-adv-x="579" d="M85 1731q-4 41 14.5 64.5t47.5 23.5t47 -23.5t14 -64.5q-5 -70 -11 -276.5t-6 -259.5t-39 -59q-18 -2 -29 14t-11 48q0 169 -27 533zM367 1731q-1 43 13.5 65.5t42.5 22.5q66 0 57 -88q-18 -210 -18 -536q0 -54 -41 -59q-17 -2 -28.5 14t-11.5 48q0 11 1 38t1 43 q0 50 -16 452z" />
<glyph unicode="#" horiz-adv-x="884" d="M81 515q-2 23 15 39t47 14q24 -3 95 -6l-28 -31q32 229 71 535l21 -24q-73 -6 -97 -6q-32 0 -49 14.5t-19 37.5q-1 22 15.5 38.5t46.5 14.5q73 -6 112 -7l-27 -37q43 318 47 486q0 26 14.5 40t36.5 14q26 0 42.5 -20.5t11.5 -53.5q-4 -29 -18.5 -113t-27.5 -170t-26 -186 l-21 40q66 -2 129 -2t153 2l-26 -22q40 370 42 471q1 26 16 40t35 14q26 0 39.5 -20t7.5 -54q-18 -118 -63 -466l-15 38l84 5q30 1 48 -15.5t19 -38.5q2 -23 -13.5 -38t-45.5 -12q-11 1 -51.5 4.5t-55.5 4.5l26 20q-6 -49 -34 -272t-34 -272l-14 41q81 3 98 5q30 1 48 -15 t19 -38q2 -23 -14 -38t-46 -12q-14 1 -59.5 4t-63.5 4l31 35q-18 -164 -49 -467q-3 -28 -18 -43t-35 -15q-24 0 -40 19.5t-10 50.5q38 233 68 457l22 -35q-23 1 -95 1q-88 0 -183 -5l28 34q-17 -138 -51 -464q-4 -28 -18.5 -43t-34.5 -15q-23 0 -38.5 19.5t-11.5 50.5 q32 178 70 455l15 -40q-56 -2 -73 -3q-31 -1 -48.5 13.5t-19.5 37.5zM271 562q72 -2 144 -2q60 0 138 2l-29 -40q32 226 70 552l19 -28q-58 2 -109 2q-63 0 -167 -4l24 26q-7 -54 -35 -278t-33 -265z" />
<glyph unicode="$" horiz-adv-x="908" d="M95 383q0 58 17 89.5t44 31.5t40 -16.5t13.5 -33.5t-3 -44.5t-3.5 -31.5q0 -135 62 -204.5t168 -69.5q66 0 115 26.5t77.5 74t42 107t13.5 132.5q0 68 -30.5 129.5t-79 110.5t-107 97t-117.5 97.5t-107.5 102t-79 121t-30.5 144.5q0 173 86.5 276t239.5 103 q112 0 188.5 -96.5t76.5 -244.5q0 -116 -63 -116q-23 0 -37 21t-8 57q11 73 11 102q0 82 -43.5 136t-138.5 54q-104 0 -160 -83t-56 -204q0 -69 30 -131.5t78.5 -111.5t107 -97t117 -97t107 -100.5t78.5 -119.5t30 -143q0 -198 -94.5 -313.5t-267.5 -115.5 q-143 0 -230 105.5t-87 255.5zM365 -92q2 84 8.5 264t10 331t3.5 289q0 72 1.5 298.5t0 370.5t-7.5 268q-1 29 17.5 46t43.5 17t42.5 -17t13.5 -46q-12 -107 -20.5 -383t-8.5 -571q0 -115 -1 -348t-0.5 -349.5t3.5 -163.5q1 -31 -16 -49t-39 -18t-37 16t-14 45z" />
<glyph unicode="%" horiz-adv-x="1099" d="M106 1340q0 172 57 269t149 99q96 1 149 -92.5t53 -263.5q0 -88 -24.5 -165.5t-74.5 -128t-115 -50.5q-90 0 -142 87.5t-52 244.5zM166 2q-14 22 0 55q138 330 336.5 870.5t257.5 775.5q5 23 22 36t35 13q30 0 48.5 -27.5t0.5 -60.5q-49 -94 -262 -677.5t-340 -958.5 q-17 -48 -57 -48q-27 0 -41 22zM193 1352q0 -261 112 -261q59 0 93.5 74.5t34.5 201.5q0 114 -35 180t-88 66q-54 0 -85.5 -78t-31.5 -183zM537 351q0 172 57 268.5t150 98.5q95 2 148 -91.5t53 -264.5q0 -137 -59 -240.5t-155 -103.5q-90 0 -142 87.5t-52 245.5zM624 362 q0 -260 112 -260q59 0 93.5 74.5t34.5 200.5q0 114 -34.5 180t-87.5 66q-55 0 -86.5 -77.5t-31.5 -183.5z" />
<glyph unicode="&#x26;" horiz-adv-x="1036" d="M148 1199q0 115 26 206.5t70.5 147.5t100 85t117.5 29q131 0 207 -99.5t76 -310.5q0 -85 -18 -158t-53 -134.5t-68 -106t-81 -103.5t-74 -96l2 49q20 -35 66 -112t63 -107q45 -76 135 -208l-26 -4q30 80 30 212q0 51 -6 89q-4 31 10.5 49.5t35.5 18.5q20 0 34 -15.5 t15 -44.5q0 -6 0.5 -16.5t0.5 -15.5q0 -204 -67 -349l-8 50q35 -53 81.5 -106t74.5 -75q27 -23 27 -50q0 -20 -14 -34.5t-33 -14.5q-33 0 -57 39q-5 8 -112 157l23 10q-47 -93 -127.5 -146t-177.5 -53q-118 0 -188 77t-70 207q0 44 13.5 90t42 96t50 82.5t61.5 86.5t53 72 l-2 -46q-21 36 -58.5 97t-57 94t-45.5 84t-39 89.5t-23 88t-10 99.5zM245 1225q0 -61 9 -112.5t31.5 -103.5t40.5 -86t56.5 -98t59.5 -101l-32 6q24 34 68.5 90.5t69.5 92.5t53.5 90.5t42 118.5t13.5 141q0 157 -52.5 232.5t-147.5 75.5q-38 0 -74 -19.5t-68 -59t-51 -108.5 t-19 -159zM260 273q0 -89 43.5 -145t127.5 -56q82 0 144.5 48t90.5 132l3 -55q-60 92 -131 205q-85 125 -141 217l32 9q-10 -16 -50 -77t-59.5 -94.5t-39.5 -87t-20 -96.5z" />
<glyph unicode="'" horiz-adv-x="303" d="M98 1741q-3 42 12 65t42 23t42 -23t11 -65q-6 -67 -10 -263t-4 -268q0 -54 -40 -58q-18 -1 -29.5 14.5t-11.5 47.5q0 368 -12 527z" />
<glyph unicode="(" horiz-adv-x="616" d="M108 775q0 184 21 349.5t51 276.5t69 205t68 142.5t56 80.5q35 39 69 37q20 0 32.5 -14t11.5 -33q0 -25 -16 -38q-275 -312 -275 -986q0 -180 22.5 -339t59.5 -270.5t78 -187t84 -114.5q36 -30 36 -63q1 -21 -12.5 -34.5t-34.5 -14.5q-31 0 -58 28q-33 36 -74 117 t-85 203t-73.5 296.5t-29.5 358.5z" />
<glyph unicode=")" horiz-adv-x="599" d="M130 1815q-1 21 13 35t35 15q29 2 57 -28q33 -36 73 -116.5t83 -201.5t71.5 -296t28.5 -361q0 -182 -18 -346.5t-44 -277.5t-59.5 -207t-60.5 -145t-52 -81q-34 -41 -67 -41q-20 0 -33.5 14.5t-13.5 34.5t16 37q38 45 68 92.5t64 132.5t57 187.5t38 258t15 343.5 q0 323 -72 565.5t-162 322.5q-35 30 -37 63z" />
<glyph unicode="*" horiz-adv-x="819" d="M109 1477q0 26 26 47t53 8q8 -4 94.5 -46.5t123.5 -54.5l-17 -20q-4 122 -21 253q-4 41 13 63t43 22q28 0 47.5 -22.5t15.5 -62.5q-4 -43 -14.5 -128.5t-13.5 -119.5l-18 11q105 31 235 105q23 15 47 15q25 0 41 -17t16 -40q0 -49 -59 -63q-157 -39 -257 -70l6 32 q46 -62 168 -191q30 -33 30 -66q0 -23 -14 -38t-35 -15q-38 0 -65 44q-97 159 -141 219h26q-14 -24 -56.5 -108t-59.5 -113q-24 -41 -56 -41q-23 0 -41 19t-18 44q0 36 35 58q59 47 130 189l13 -38q-39 27 -127.5 44.5t-90.5 18.5q-59 21 -59 62z" />
<glyph unicode="+" horiz-adv-x="891" d="M108 451q0 22 17 38.5t47 14.5q68 -7 246 -9l-18 -17q-2 152 -8 245q-1 30 15 47.5t39 17.5q22 0 37.5 -16.5t12.5 -46.5q-9 -74 -12 -249l-15 19q118 0 249 8q30 1 47.5 -15.5t17.5 -38.5q0 -23 -16.5 -38t-46.5 -12q-129 12 -260 12l24 20q0 -92 12 -253 q2 -32 -13.5 -48t-38.5 -16t-39 16.5t-14 47.5q11 131 9 263l16 -30q-95 -1 -244 -12q-31 -2 -47.5 13t-16.5 39z" />
<glyph unicode="," horiz-adv-x="461" d="M131 72q0 40 26 64.5t68 24.5q38 0 67 -33t29 -80q0 -60 -22.5 -116t-53.5 -94q-48 -57 -73 -49q-23 6 -23 32q0 18 19 41q56 66 57 140q-23 -10 -58.5 11t-35.5 59z" />
<glyph unicode="-" d="M119 439q0 23 17 39.5t47 13.5q53 -8 127 -8q64 0 128 7q30 3 47.5 -13.5t17.5 -38.5t-16.5 -37.5t-46.5 -14.5q-140 7 -142 7q-45 0 -115 -7q-30 -4 -47 12t-17 40z" />
<glyph unicode="." horiz-adv-x="461" d="M139 54q0 39 27.5 62t62.5 23t62 -22t27 -63q0 -44 -29.5 -64.5t-66.5 -20.5q-32 0 -57.5 22.5t-25.5 62.5z" />
<glyph unicode="/" horiz-adv-x="722" d="M80 -131q0 13 6 30q88 242 240.5 844t236.5 982q6 29 23.5 45t37.5 16q18 0 32 -13.5t14 -36.5q0 -19 -8 -40q-66 -176 -247 -909.5t-238 -916.5q-8 -24 -23.5 -36.5t-31.5 -12.5q-18 0 -30 13.5t-12 34.5z" />
<glyph unicode="0" horiz-adv-x="1021" d="M139 854q0 375 94.5 576t282.5 201q191 0 277 -192t88 -585q2 -272 -38.5 -466t-128 -302.5t-216.5 -108.5q-98 0 -168 59.5t-111.5 176t-60.5 274t-19 367.5zM235 837q0 -209 17.5 -358.5t51.5 -239.5t81.5 -131t111.5 -41q138 0 213.5 189.5t75.5 590.5q0 81 -2.5 148 t-9.5 141t-19.5 131t-33 110.5t-48.5 88.5t-67.5 56t-89.5 21q-281 0 -281 -706z" />
<glyph unicode="1" horiz-adv-x="573" d="M97 1431q0 26 24 47q100 87 134 120q27 28 60 28q23 0 38 -16.5t14 -47.5q-10 -277 -10 -523q0 -766 5 -967q1 -31 -17 -49t-43 -18q-45 0 -44 62q13 331 13 892q0 458 -1 597l29 -11q-2 -4 -24.5 -39t-44 -67.5t-30.5 -41.5q-21 -24 -47 -24q-22 0 -39 17.5t-17 40.5z " />
<glyph unicode="2" horiz-adv-x="865" d="M109 56q0 94 29.5 188.5t77.5 175t105 160.5t114.5 156t105.5 149t77.5 152t29.5 154q0 337 -203 337q-110 0 -164 -97.5t-46 -284.5q1 -28 -16.5 -43.5t-39.5 -15.5t-38 17.5t-17 48.5q-4 119 22 210.5t73.5 146t108 82t131.5 27.5q152 0 221.5 -105t69.5 -310 q0 -88 -39 -184.5t-97 -179t-126.5 -176t-126.5 -176t-97 -179t-39 -184.5q0 -25 8 -30.5t36 -4.5q41 2 140 8.5t144 8.5t133 0q25 -1 40 -18t15 -37t-14.5 -35t-40.5 -15t-105 1.5t-133 1.5q-163 0 -262 -9q-77 -8 -77 60z" />
<glyph unicode="3" horiz-adv-x="897" d="M107 391q0 9 0.5 26t1.5 26q2 30 18.5 45.5t42.5 15.5q22 0 36.5 -18.5t10.5 -50.5q-1 -9 -6 -37t-5 -42q0 -133 60.5 -210t179.5 -77q81 0 136.5 42t78.5 105.5t23 143.5q0 108 -73 191t-191 78q-30 -4 -47 9.5t-17 36.5q0 26 22 48.5t62 29.5q97 44 158.5 157t61.5 258 q0 172 -56.5 266.5t-160.5 94.5q-103 0 -161 -81t-58 -232q0 -38 -9.5 -54t-36.5 -16q-23 0 -39.5 18t-16.5 50q0 197 92 303.5t225 106.5q308 0 308 -451q0 -70 -12 -137t-39.5 -135.5t-78.5 -126.5t-122 -94l-1 25q49 -2 98 -25t91 -64t68 -106.5t26 -143.5 q0 -172 -98 -280t-247 -108q-143 0 -238 112t-87 301z" />
<glyph unicode="4" horiz-adv-x="822" d="M20 581q0 16 14 44q16 34 99.5 194t186.5 368.5t187 403.5q8 18 25.5 31t36.5 13q23 0 33.5 -19t10.5 -46q0 -64 -3.5 -301.5t-3.5 -434.5v-227l-20 23l148 8q31 1 48 -13t17 -33t-15.5 -31.5t-43.5 -11.5q-7 0 -42.5 -0.5t-72.5 -1t-41 -0.5l23 25q-2 -90 -2 -155 q0 -103 8 -370q1 -30 -15 -48t-36 -18q-21 0 -36 16t-15 46v31q0 43 2.5 148t2.5 168q0 56 -2 176l21 -20q-69 3 -112 3q-55 0 -164.5 -5.5t-171.5 -5.5q-67 0 -67 43zM130 628q57 -3 213 -3q22 0 190 3l-19 -28q6 436 6 507q0 21 1 191.5t0 216.5l21 -35 q-49 -111 -208.5 -447.5t-193.5 -427.5z" />
<glyph unicode="5" horiz-adv-x="903" d="M144 357q1 29 17 44.5t37 15.5q24 0 40.5 -18t12.5 -50q-2 -28 -2 -40q0 -106 61.5 -177.5t159.5 -71.5q63 0 111 28.5t76 78.5t41.5 111.5t13.5 134.5q0 142 -59.5 245.5t-158.5 103.5q-44 0 -80 -13t-58.5 -34t-35 -38.5t-20.5 -35.5q-28 -59 -70 -59q-24 0 -40 17.5 t-12 47.5q25 204 25 418q0 274 -17 497q-2 33 19 48.5t48 12.5q56 -9 295 -9q122 0 173 4q37 2 56.5 -12.5t19.5 -35.5q0 -30 -20.5 -46t-55.5 -12q-78 8 -460 14l28 29q2 -532 -6 -845l-17 10q37 64 106.5 96.5t114.5 32.5q154 0 235.5 -107.5t81.5 -325.5q0 -194 -95 -316 t-239 -122q-153 0 -242 101t-84 278z" />
<glyph unicode="6" horiz-adv-x="1011" d="M158 811q0 168 21.5 308.5t67 256.5t125.5 183t188 71q148 5 229.5 -100t81.5 -330q0 -32 -16.5 -49.5t-39.5 -17.5q-21 0 -35.5 15.5t-13.5 44.5q9 179 -48 264.5t-159 85.5q-142 0 -220 -181.5t-94 -525.5q-2 -87 -1 -125.5t5.5 -127.5t5.5 -143l-31 20q15 91 52 160 t84.5 105.5t93.5 54t90 17.5q139 0 221.5 -104t82.5 -298q0 -49 -11.5 -103t-37 -110.5t-61.5 -101.5t-91 -73.5t-120 -28.5q-110 0 -204 87q-91 86 -128 253.5t-37 492.5zM276 385q20 -141 89 -226.5t150 -85.5q113 0 176.5 94.5t63.5 229.5q0 142 -57 225t-161 83 q-93 0 -174.5 -96.5t-86.5 -223.5z" />
<glyph unicode="7" horiz-adv-x="785" d="M70 1566q0 21 14 34.5t41 13.5q25 0 104 -2t133 -2q130 0 268 11q79 8 79 -61q0 -51 -58 -250.5t-127.5 -419.5t-125.5 -462.5t-52 -371.5q1 -28 -17 -43t-41 -16q-31 -1 -44 20.5t-9 55.5q17 158 79.5 400t127.5 441t117 369t52 208q0 25 -9 31t-38 4q-183 -22 -356 -22 q-62 0 -83 4q-26 6 -40.5 22.5t-14.5 35.5z" />
<glyph unicode="8" horiz-adv-x="955" d="M122 1154q0 238 89 359.5t260 121.5q337 0 337 -481q0 -58 -12.5 -125t-38.5 -140.5t-76.5 -133.5t-117.5 -85v30q103 -24 167.5 -106.5t64.5 -238.5q0 -160 -90.5 -268.5t-243.5 -108.5q-137 0 -229 108.5t-92 266.5q0 75 17.5 134.5t51 101t70.5 69t87 52.5l-11 -28 q-63 23 -111 80t-73 127.5t-37 137.5t-12 127zM218 1157q0 -177 70 -301t182 -124q76 0 130.5 59t80.5 154t26 212q0 196 -56.5 291.5t-180.5 95.5q-121 0 -186.5 -98.5t-65.5 -288.5zM234 372q0 -123 64 -211.5t175 -88.5q77 0 131 44.5t77 111t23 146.5q0 110 -67 188 t-176 78q-102 0 -164.5 -78.5t-62.5 -189.5z" />
<glyph unicode="9" horiz-adv-x="990" d="M145 1111q0 50 8.5 105.5t25 114.5t45 111.5t65.5 94.5t89.5 67t113.5 25q198 0 279 -165t81 -555q0 -228 -16.5 -392.5t-54.5 -289.5t-105 -187t-164 -62q-55 0 -109 25t-100 71.5t-75.5 121t-33.5 164.5q-1 31 13 48.5t33 17.5t33.5 -15.5t15.5 -43.5q10 -142 73 -220 t150 -78q66 0 116.5 59t79 156t42.5 208t14 230v75l10 -4q-24 -78 -58.5 -133.5t-74.5 -85t-78.5 -42t-80.5 -12.5q-163 0 -250 148.5t-87 442.5zM244 1110q0 -239 58.5 -370.5t177.5 -131.5q120 0 198 124t77 342q-1 214 -68.5 340t-191.5 126q-76 0 -134.5 -64.5 t-87.5 -161t-29 -204.5z" />
<glyph unicode=":" horiz-adv-x="461" d="M139 61q0 39 27.5 62t62.5 23t62 -22t27 -63q0 -44 -29.5 -64.5t-66.5 -20.5q-32 0 -57.5 22.5t-25.5 62.5zM139 639q0 39 27.5 62t62.5 23t62 -22t27 -63q0 -44 -29.5 -64.5t-66.5 -20.5q-32 0 -57.5 22.5t-25.5 62.5z" />
<glyph unicode=";" horiz-adv-x="461" d="M123 72q0 40 26 64.5t68 24.5q38 0 67 -33t29 -80q0 -60 -22.5 -116t-53.5 -94q-48 -57 -73 -49q-23 6 -23 32q0 18 19 41q56 66 57 140q-23 -10 -58.5 11t-35.5 59zM139 633q0 39 27.5 62t62.5 23t62 -22t27 -63q0 -44 -29.5 -64.5t-66.5 -20.5q-32 0 -57.5 22.5 t-25.5 62.5z" />
<glyph unicode="&#x3c;" horiz-adv-x="951" d="M52 449q0 16 12.5 27t38.5 22q150 63 325.5 161.5t274.5 171.5q23 17 44 17q24 0 42.5 -15.5t18.5 -44.5q0 -33 -48 -58q-32 -17 -160.5 -80t-250 -126t-214.5 -117v73q136 -78 332.5 -181t298.5 -145q41 -17 41 -50q0 -26 -16.5 -43t-41.5 -17q-18 0 -37 12 q-376 227 -606 334q-22 11 -30.5 16t-16 16t-7.5 27z" />
<glyph unicode="=" horiz-adv-x="945" d="M108 326q0 21 17 35.5t48 12.5q99 -8 299 -8q176 0 300 7q30 1 47.5 -13.5t17.5 -35.5q0 -20 -16.5 -33t-46.5 -11q-124 9 -307 9q-137 0 -294 -9q-31 -2 -48 12t-17 34zM108 542q0 21 17 35.5t48 12.5q111 -9 299 -9q159 0 300 8q30 1 47.5 -14t17.5 -35t-16.5 -34 t-46.5 -10q-70 9 -265 9q-234 0 -336 -9q-32 -2 -48.5 11.5t-16.5 34.5z" />
<glyph unicode="&#x3e;" horiz-adv-x="951" d="M143 108q0 37 47 58q142 61 348.5 163.5t276.5 159.5v-67q-132 77 -329.5 180.5t-300.5 145.5q-41 17 -41 51q0 25 16 42t41 17q17 0 38 -11q365 -223 606 -335q21 -10 30 -15t16.5 -16t7.5 -27t-12 -26t-40 -23q-269 -140 -600 -333q-27 -17 -44 -17q-60 0 -60 53z" />
<glyph unicode="?" horiz-adv-x="879" d="M137 1444q0 135 90 238.5t224 103.5q130 0 210.5 -91t80.5 -255q0 -93 -24 -176.5t-62 -146.5t-84 -121.5t-92.5 -113t-84.5 -109t-62 -122t-24 -140.5q0 -74 30.5 -121t92.5 -47q64 0 96 45.5t32 125.5q0 12 -5 41t-5 43q0 35 16 52.5t40 17.5q34 0 48 -29.5t14 -68.5 q0 -149 -65 -231.5t-170 -82.5q-91 0 -153 69t-62 178q0 84 24 159.5t63 134.5t85.5 115.5t93.5 113t86 115.5t63 134.5t24 158.5q0 124 -56.5 192t-154.5 68q-85 0 -145 -71t-60 -165q0 -39 20.5 -79.5t20.5 -74.5q0 -25 -16 -41t-37 -16q-92 0 -92 197zM330 61 q0 39 27.5 62t62.5 23t62 -22t27 -63q0 -44 -29.5 -64.5t-66.5 -20.5q-32 0 -57.5 22.5t-25.5 62.5z" />
<glyph unicode="@" horiz-adv-x="1249" d="M88 335q0 174 51.5 321t137 243.5t195.5 150t228 53.5q68 0 130 -15.5t121.5 -52.5t102.5 -91.5t69.5 -138.5t26.5 -189q0 -213 -85.5 -364.5t-210.5 -151.5q-112 0 -112 169q0 27 17 205l13 -18q-24 -82 -49 -143.5t-57.5 -113.5t-73.5 -79t-89 -27q-68 0 -120.5 66 t-52.5 179q0 90 23 166t60 125.5t83.5 84.5t92.5 50.5t88 15.5q38 0 86.5 -24t64.5 -65l-39 3q6 27 25.5 40.5t36.5 13.5q18 0 31 -14.5t13 -40.5q0 -3 -15 -67q-61 -233 -61 -343q0 -104 58 -104q24 0 53.5 25t58.5 73t48.5 133.5t19.5 189.5q0 415 -368 415 q-92 0 -181.5 -44t-163.5 -126t-119.5 -214t-45.5 -293q0 -230 118 -359t330 -129q117 0 182 29t116 85q2 4 8 13t8.5 13.5t9 13.5t9.5 12.5t10 11.5t11 9.5t12 6.5t13 3t14 -1q21 -4 30.5 -21t3.5 -38q-10 -33 -37.5 -67.5t-76.5 -70t-130.5 -58.5t-182.5 -23 q-110 0 -205 33.5t-171 100t-119.5 178t-43.5 255.5zM420 349q0 -81 25.5 -123.5t68.5 -42.5q39 0 78.5 43.5t73.5 116.5t62 159t49 180l3 -61q-17 66 -111 66q-105 0 -177 -97t-72 -241z" />
<glyph unicode="A" horiz-adv-x="933" d="M54 68q30 93 86 339.5t147.5 683t95.5 452.5q8 37 29.5 57.5t47.5 20.5q25 0 45 -21t27 -59q47 -272 154.5 -744.5t181.5 -724.5q4 -14 4 -27q0 -18 -8 -31q-14 -23 -41 -23q-16 0 -30.5 12t-19.5 34q-275 1233 -330 1511h27q-29 -140 -101 -478.5t-125.5 -599 t-83.5 -425.5q-5 -25 -20 -38t-33 -13q-27 0 -45 21q-12 14 -12 32q0 10 4 21zM213 509v100q68 -8 249 -8q208 0 257 8v-100q-62 7 -244 7q-184 0 -262 -7z" />
<glyph unicode="B" horiz-adv-x="906" d="M143 1499v7q0 7 1 13q2 9 4.5 15.5t8 12t9 8.5t11 6t10.5 4t11 3t9 2q175 46 278 46q327 0 327 -276q0 -66 -19.5 -127t-52.5 -111t-85 -100.5t-107.5 -92t-129.5 -88.5v18q2 0 36 8t44 8q152 -2 236.5 -74t84.5 -203q0 -98 -36.5 -188.5t-97.5 -158t-138 -119.5 t-159.5 -81t-161.5 -34h-11q-63 0 -63 65q0 20 5 300.5t5 501.5q0 281 -19 635zM219 1476l34 57q1 -13 1 -24v-2q-2 21 -3 -6q-6 -90 -6 -637q0 -548 8 -799l-24 34h6q53 0 115 17q66 18 133 57.5t122 93t90 132.5t35 168q0 103 -76 155t-189 52q-58 0 -133 -16t-109 -41 l11 103q49 9 112 38t128 78t119.5 108t89.5 134.5t35 151.5q0 109 -67.5 158t-177.5 49q-52 0 -126 -15t-128 -46z" />
<glyph unicode="C" horiz-adv-x="929" d="M96 752q0 186 25.5 342t75.5 274t129 184.5t181 66.5q104 0 170.5 -52t103 -175.5t36.5 -323.5q0 -32 -14.5 -49t-37.5 -17q-20 0 -32.5 15t-12.5 43q0 253 -50.5 359.5t-166.5 106.5q-79 0 -140.5 -68t-98 -182.5t-54.5 -251.5t-18 -289q0 -163 16.5 -283.5t42.5 -191.5 t66 -114t79 -57.5t89 -14.5q97 0 164 84.5t66 254.5q0 32 16 51t37 19q25 -1 40 -17q14 -15 14 -42q0 -97 -29 -181.5t-79 -145.5q-98 -120 -239 -120q-379 0 -379 775z" />
<glyph unicode="D" horiz-adv-x="978" d="M142 1533v9q0 59 60 67q100 14 158 14q268 0 401 -170.5t133 -486.5q0 -206 -55 -388t-147.5 -308.5t-217.5 -199.5t-262 -73q-27 0 -36.5 16.5t-9.5 49.5q0 1123 -24 1470zM226 1502l36 52q-11 -110 -11 -440q0 -303 6.5 -657t10.5 -414l-34 49q11 -1 22 -1q66 0 133 31 q79 36 151 112t129 180t90.5 245.5t33.5 296.5q0 127 -24 228t-63.5 165t-94 106t-111 59.5t-119.5 17.5q-106 0 -155 -30z" />
<glyph unicode="E" horiz-adv-x="760" d="M167 926q0 63 0.5 163.5t0.5 147.5t-1 113t-3 115t-6 98v11q0 53 48 53q9 0 19 -2q35 -7 130 -7q113 0 188 9q6 1 12 1q27 0 43 -15q20 -18 20 -42q0 -23 -19 -37t-56 -12q-123 8 -205 8q-56 0 -92 -4l18 35q0 -145 -3 -427.5t-3 -430.5l-17 29q149 0 228 9q8 1 16 1 q54 0 54 -45q0 -44 -64 -51q-8 -1 -77 -1q-6 0 -74 1h-56.5h-33.5l24 33q0 -112 1 -250.5t1.5 -243.5t0.5 -122l-27 23q274 0 430 15q33 4 54.5 -14t21.5 -42q0 -21 -20 -36t-56 -12q-60 3 -160 3q-210 0 -284 -11q-5 -1 -9 -1q-21 0 -39 13q-20 14 -20 46q0 68 7.5 360.5 t7.5 518.5z" />
<glyph unicode="F" horiz-adv-x="616" d="M152 1564v7q0 27 14 41q16 16 33.5 15t28.5 -1q35 -7 135 -7q133 0 208 9q6 1 12 1q25 -1 42 -15q21 -18 21 -42q0 -23 -19 -37t-56 -12q-130 8 -217 8q-62 0 -101 -4l18 35q0 -223 -2 -859l-16 29q158 0 239 9q10 1 19 1q56 0 56 -45q0 -17 -16 -31t-50 -18 q-26 -3 -95 -3q-10 0 -74 1h-53.5h-32.5l23 33q0 -152 4.5 -382t4.5 -236q0 -26 -14 -43.5t-37 -17.5q-21 0 -39 14t-17 47q4 72 5 181t1 199t-0.5 245.5t-0.5 239.5q0 328 -24 638z" />
<glyph unicode="G" horiz-adv-x="936" d="M92 845q0 763 405 785q12 1 23 1q139 0 215 -103q82 -112 82 -364q1 -66 -45 -66q-21 0 -36.5 15t-15.5 43q0 215 -58 300q-53 79 -152 79q-9 0 -19 -1q-80 -6 -139 -62t-94 -153t-51.5 -219.5t-16.5 -273.5q0 -184 16 -320.5t42 -217.5t66 -129.5t80.5 -65t92.5 -16.5 q87 0 145 76.5t83 225.5q10 59 17 147q4 51 4 80q0 22 -2 32l24 -29q-59 3 -96 3h-24q-40 -2 -79 -6.5t-52 -4.5q-30 0 -45.5 16t-15.5 39q0 22 16 36.5t45 10.5q34 -4 121 -4q43 0 89 5.5t60 5.5q52 0 52 -59q0 -314 -94 -494t-257 -180q-198 0 -292 209t-94 659z" />
<glyph unicode="H" horiz-adv-x="990" d="M152 1553v6q0 27 15 41q17 16 41 16t41 -16.5t15 -46.5q-9 -243 -9 -670q0 -446 7 -815q1 -31 -16 -49t-40 -18q-22 0 -37 16.5t-14 45.5q11 332 11 895q0 404 -14 595zM187 681q0 25 17 40t41 2q64 -12 231 -12q214 0 276 12v-1v-1v-1v-1v-1v-2v-1v-1v-1v-2v-1v-1v-1v-2 v-1v-1v-2v-1v-2v-1v-2v-1v-2v-1v-2v-1v-2v-1v-2v-2v-1v-2v-2v-1v-2v-2v-1v-2v-2v-2v-2v-1v-2v-2v-2v-2v-2v-2v-2v-2v-2v-2v-2v-2v-3v-2v-8q-98 10 -277 10q-159 0 -230 -10q-28 0 -43 17t-15 39zM735 1020q0 203 -4 539q-1 29 16 45.5t39 16.5q21 0 37 -16q15 -15 15 -43v-3 q-16 -633 -16 -1056q0 -328 7 -440q1 -30 -14 -47t-37 -17q-20 1 -35 17q-14 15 -14 42q0 122 3 442.5t3 519.5z" />
<glyph unicode="I" horiz-adv-x="492" d="M189 1565q-1 5 -1 10q0 23 12 37q14 16 38 16q25 0 44 -16.5t18 -46.5q-9 -203 -9 -388q0 -123 10 -836q2 -163 2 -278q1 -28 -17 -45q-18 -18 -43 -18q-23 0 -38.5 16t-14.5 46q13 358 13 802q0 505 -14 701z" />
<glyph unicode="J" horiz-adv-x="818" d="M57 430q0 46 4 86q2 30 18.5 46.5t41.5 16.5t39.5 -19t11.5 -51q-6 -54 -6 -124q0 -167 48.5 -243.5t127.5 -76.5q106 0 151 105.5t47 373.5q2 158 2 400v137q1 49 1 83.5t-1 53.5q0 38 -1 108t-4 123.5t-8 110.5q-3 29 13 45t39 16t41 -16.5t18 -45.5q-4 -472 -4 -996 q0 -304 -69 -444.5t-232 -140.5q-125 0 -201.5 116.5t-76.5 335.5z" />
<glyph unicode="K" horiz-adv-x="950" d="M152 1562v8q0 24 16 38q18 16 45 17q26 0 45.5 -16.5t18.5 -46.5q-11 -264 -11 -906l-14 8q123 204 263.5 486.5t195.5 441.5q16 42 53 42q30 0 48.5 -25.5t3.5 -60.5q-15 -36 -36.5 -80t-55.5 -107.5t-59 -108t-77 -138.5t-79 -143l7 54q92 -270 370 -939q6 -15 6 -29 q0 -17 -10 -31q-18 -26 -48 -26q-36 0 -51 41q-254 719 -320 884l26 12q-180 -328 -240 -419l17 68q0 -258 4 -520q1 -30 -16.5 -48t-41.5 -18t-40.5 16t-15.5 46q18 477 18 904q0 385 -22 596z" />
<glyph unicode="L" horiz-adv-x="764" d="M152 1561v9q0 24 14 38q18 17 42 17t42.5 -16.5t18.5 -46.5q0 -115 -4 -537t-6 -961l-16 23q42 -1 84 -1q159 0 314 15q34 4 55 -14t21 -42q0 -22 -19.5 -36.5t-56.5 -11.5q-59 3 -158 3q-180 0 -256 -11q-4 -1 -9 -1q-22 0 -38 13q-20 15 -20 49q12 226 12 875 q0 447 -20 636z" />
<glyph unicode="M" horiz-adv-x="1319" d="M164 635q0 194 -6 493t-6 417q0 42 19.5 62t50.5 20q27 0 46 -18t27 -46l380 -1296h-23q34 92 145 481.5t219 812.5q18 69 83 69q25 0 41 -26q14 -23 14 -55v-9q-3 -69 -4 -161q-1 -46 -0.5 -110.5t0.5 -146.5q1 -166 1 -229q0 -314 16 -831v-3q1 -28 -15 -43 q-16 -16 -41 -16q-23 0 -40.5 17.5t-17.5 48.5q15 446 15 974q0 431 -4 537l36 1q-9 -44 -69.5 -277t-156 -575t-163.5 -545q-6 -18 -23 -29t-34 -11q-31 0 -42 40q-3 12 -68 227t-132 438.5t-130 443.5t-73 277l34 -1q-1 -10 -1 -71v-121q2 -174 2 -190q0 -241 4 -468 t9.5 -410t6.5 -248q1 -27 -18 -43t-40 -16q-22 0 -38 18q-16 17 -16 45q0 60 6 250.5t6 322.5z" />
<glyph unicode="N" horiz-adv-x="1072" d="M162 957q0 446 -2 595q0 35 22 55.5t52 20.5q52 0 69 -50q45 -132 176.5 -477.5t258 -671.5t139.5 -361h-28q-10 171 -21 707t-20 792q0 30 16.5 46.5t38.5 16.5q23 0 39 -16.5t16 -46.5q-6 -660 -6 -811q0 -466 8 -683v-3q0 -30 -20 -48q-22 -20 -50 -19 q-21 0 -38.5 12.5t-25.5 35.5q-75 220 -181.5 482t-212 528t-188.5 520h41q1 -389 7.5 -927.5t6.5 -593.5q0 -29 -15.5 -45t-36.5 -16q-23 -1 -39 17q-16 16 -16 46q0 63 5 360.5t5 534.5z" />
<glyph unicode="O" horiz-adv-x="1027" d="M89 831q0 159 29.5 303.5t83.5 255t136.5 176t181.5 65.5q209 0 311.5 -207t104.5 -593v-7q0 -403 -116 -624q-116 -223 -325 -223q-207 0 -306.5 214t-99.5 640zM185 808q0 -171 18 -302.5t48 -212t72.5 -131.5t86 -70t95.5 -19q54 0 100.5 21.5t91 75t75.5 136t50 214 t19 299.5q0 109 -10 209t-33.5 195.5t-59 165t-91 112t-125.5 42.5q-78 0 -143.5 -64.5t-107 -169.5t-64 -235t-22.5 -266z" />
<glyph unicode="P" horiz-adv-x="865" d="M152 1506v9q0 15 2 25q4 14 14 21t16 10.5t19.5 6t15.5 2.5q150 38 263 38q166 0 263 -99.5t97 -291.5q0 -109 -33 -211t-87.5 -184t-132 -158t-158.5 -133t-175 -108l-1 97q495 258 495 688q0 155 -72.5 234.5t-191.5 84.5h-13q-49 0 -109 -13q-68 -15 -119 -40l19 34 q-8 -187 -8 -638q0 -55 1 -91.5t3.5 -82.5t8.5 -214.5t13 -421.5q1 -32 -15.5 -49.5t-40.5 -17.5q-20 0 -35.5 16.5t-15.5 45.5q0 67 -0.5 381.5t-0.5 435.5q0 134 -2 234t-4 139t-8 129t-8 122z" />
<glyph unicode="Q" horiz-adv-x="1027" d="M84 843q0 366 113.5 577t309.5 211q213 0 317 -195.5t106 -592.5v-15q0 -851 -438 -851q-206 0 -307 207t-101 659zM184 822q0 -156 12 -278.5t34.5 -203.5t50 -136.5t64 -84.5t71 -41t75.5 -12t73 5.5t69.5 24.5t65 51t55 90t44.5 137.5t27.5 196t10.5 263.5 q0 143 -18 266t-56 224t-103 159t-152 58q-105 0 -179.5 -100t-109 -259.5t-34.5 -359.5zM504 302q-8 16 -8 30.5t8 27.5q15 24 45 24q40 0 55 -43q77 -241 106.5 -320.5t96.5 -221.5q7 -19 7 -31q0 -21 -19.5 -35t-39.5 -14q-34 0 -46 42q-14 43 -31.5 95.5t-24.5 72.5 t-18.5 53t-28 73.5t-38.5 94t-64 152.5z" />
<glyph unicode="R" horiz-adv-x="916" d="M152 1517v8q0 15 3 26q4 14 13 21t16 10t19.5 5.5t15.5 3.5q137 38 258 38q168 0 264.5 -95t96.5 -285q0 -103 -35.5 -204.5t-93.5 -186.5t-138 -163.5t-164.5 -139.5t-177.5 -111l-1 97q61 31 127.5 80t136.5 118.5t125 146t90.5 170t35.5 184.5q0 148 -71.5 227 t-189.5 84h-6q-47 0 -120 -14q-78 -15 -119 -47l29 51q-15 -321 -15 -726q0 -52 1.5 -80t4 -62t8.5 -190.5t13 -412.5q1 -32 -16 -49.5t-40 -17.5q-21 0 -36 16.5t-15 45.5v752q0 388 -19 700zM488 702l64 81q109 -349 256 -694q8 -16 8 -31q0 -16 -10 -29q-18 -25 -48 -25 q-39 0 -53 41q-30 85 -99 312.5t-118 344.5z" />
<glyph unicode="S" horiz-adv-x="867" d="M78 342q0 25 3 52q4 32 19.5 48.5t35.5 16.5q32 0 42.5 -25t10.5 -83q0 -137 63 -213t167 -76q111 0 175 81t64 227q0 87 -29.5 160.5t-76.5 127t-104.5 103.5t-114.5 101t-104 108t-76.5 137t-29.5 175q0 160 94 259t237 99q57 0 108 -20.5t91.5 -61t62.5 -107.5 q19 -57 19 -127q0 -13 -1 -26v-18q0 -12 -1 -17q-4 -38 -22 -59t-41 -21t-36.5 20.5t-7.5 56.5q11 75 11 103q0 80 -53 134t-139 54q-95 0 -158 -68.5t-63 -194.5q0 -91 29.5 -166t76.5 -128t103.5 -102t113.5 -98.5t104 -105t76.5 -135t29.5 -176.5q0 -186 -95.5 -296.5 t-254.5 -110.5q-148 0 -238.5 110.5t-90.5 261.5z" />
<glyph unicode="T" horiz-adv-x="748" d="M-1 1570q-1 21 17 39q17 17 44 17h3q199 -9 258 -9q65 0 360 8q30 1 48.5 -16.5t18.5 -37.5q0 -19 -16 -31.5t-45 -11.5q-231 7 -279 7h-9l27 32q-9 -216 -9 -696q0 -364 9 -801q1 -32 -14.5 -49.5t-37.5 -17.5q-21 0 -38.5 16.5t-17.5 45.5q0 21 -0.5 64.5t-0.5 66.5 q0 166 5 478t5 477q0 296 -9 418l20 -34h-9q-66 0 -266 -13q-31 -1 -47.5 13t-16.5 35z" />
<glyph unicode="U" horiz-adv-x="1044" d="M152 1551v8q0 25 15 39q18 16 45 16q26 0 45 -16.5t17 -46.5q-13 -420 -13 -730q0 -257 11 -436q9 -152 76.5 -230.5t172.5 -78.5q106 0 178 81t83 227q11 179 11 323q0 320 -19 850q-1 30 16.5 46t41.5 16q25 0 43 -16q17 -15 17 -43q0 -23 -1 -87.5t-2 -182t-3 -238.5 q-4 -423 -18 -647q-6 -83 -29 -157t-63.5 -136t-106 -98.5t-147.5 -36.5q-176 0 -262 130.5t-87 363.5v47q0 80 1 209.5t1 213.5q0 365 -23 610z" />
<glyph unicode="V" horiz-adv-x="925" d="M44 1575q0 25 14.5 39.5t37.5 15.5h3q23 0 43 -16q21 -18 29 -56q53 -294 158 -781.5t158 -661.5l-34 -5q31 61 85 300.5t88 429.5q28 162 74 386.5t61 314.5q13 85 62 85q29 0 47 -22q11 -13 10 -31q0 -11 -4 -25q-27 -95 -151.5 -668.5t-191.5 -829.5q-13 -53 -64 -53 q-54 0 -71 53q-10 29 -66.5 298t-136.5 623t-144 570q-7 17 -7 34z" />
<glyph unicode="W" horiz-adv-x="1631" d="M46 1550q-2 11 -2 20q0 22 12 37q18 21 47 21q49 0 62 -85q54 -334 156 -842t132 -586l-29 -3q24 98 110 430t146.5 587.5t79.5 393.5q9 73 62 73h3q41 -1 51 -54q41 -185 112 -541t121.5 -601t70.5 -293l-28 -4q5 20 58 249.5t79 343.5t69.5 309.5t69.5 331t38 223.5 q6 40 22 57q14 15 35 15h5q44 -2 44 -54q0 -20 -5 -35q-302 -1385 -345 -1492q-22 -53 -59 -53q-19 0 -35.5 13.5t-23.5 39.5q-54 190 -117 482.5t-90.5 436.5t-84.5 450l22 -5q-62 -286 -166 -703.5t-158 -660.5q-5 -24 -25 -38.5t-43 -14.5q-21 0 -38.5 13.5t-24.5 39.5 q-55 210 -119.5 499t-133.5 619.5t-80 380.5z" />
<glyph unicode="X" horiz-adv-x="892" d="M129 1598q0 65 50 65q49 0 66 -58q29 -100 111.5 -325t125.5 -361l-31 1q41 124 130.5 363t108.5 314q16 61 63 61q20 0 34 -15t14 -41q0 -20 -10 -43l-55 -126q-54 -126 -74.5 -176.5t-66.5 -172.5t-86 -243q181 -546 267 -747q8 -18 8 -33q0 -17 -10 -32 q-18 -28 -46 -28q-34 0 -47 38q-4 13 -232 728l23 4q-21 -67 -78 -247.5t-91 -282.5t-65 -184q-24 -64 -62 -64q-17 0 -30 16.5t-13 40.5q0 14 7 33q95 226 276 777q-107 324 -276 693q-11 23 -11 45z" />
<glyph unicode="Y" horiz-adv-x="966" d="M44 1581q0 24 15 39.5t37 16.5q24 1 37.5 -15t25.5 -58q98 -345 364 -944h-42q7 18 60 160t78 210t68.5 189t73.5 213t51 165q13 44 25.5 65t36.5 21q48 0 48 -47q0 -13 -5 -31q-19 -64 -76.5 -215t-89.5 -243q-64 -181 -230 -605l29 128q-7 -205 -7 -276q0 -50 3 -136 t4 -155q0 -30 -20.5 -47.5t-43.5 -17.5q-22 0 -38 17.5t-14 47.5q2 21 7.5 71.5t7.5 76t4.5 68t2.5 83.5q0 127 -12 257l23 -113q-41 109 -191 471t-225 571q-7 17 -7 33z" />
<glyph unicode="Z" horiz-adv-x="796" d="M60 66q5 48 127 338.5t254.5 630.5t159.5 497q2 -2 13 -8t12 -11q-72 4 -239 4q-132 0 -214 -5q-36 -2 -55.5 12.5t-19.5 36.5q0 24 20.5 40.5t54.5 16.5q22 0 90.5 -4.5t106.5 -4.5q186 0 242 8q16 3 30 3q67 0 67 -67q0 -39 -129 -368.5t-268.5 -684t-156.5 -435.5 q-4 3 -9 5l-8 4q-3 2 -5.5 4.5t-3.5 7.5q30 2 69 2q260 0 415 17q32 3 51 -14t19 -40q-1 -24 -19 -42q-17 -16 -45 -16h-6q-49 5 -157 5q-34 0 -115 2q-61 1 -107 1q-15 -1 -29 -1q-55 0 -80 -3q-26 -4 -48 15q-18 15 -18 42q0 6 1 12z" />
<glyph unicode="[" horiz-adv-x="664" d="M154 1811q-3 33 15 49t40 13q36 -7 97 -7q42 0 150 9q34 4 54.5 -13.5t20.5 -41.5q0 -23 -19 -38t-56 -12q-90 8 -119 8q-58 0 -110 -4l43 52q-4 -1280 -8 -1998l-29 33q73 -2 226 14q33 4 53.5 -13.5t20.5 -41.5q0 -22 -19 -36.5t-55 -12.5q-129 6 -150 6q-38 0 -80 -3 q-28 -2 -48 12t-19 48q19 385 19 1121q0 614 -27 856z" />
<glyph unicode="\" horiz-adv-x="722" d="M72 1736q0 23 12.5 36.5t30.5 13.5q19 0 36 -16t23 -45q329 -1468 464 -1835q7 -15 7 -30q0 -21 -12.5 -34.5t-29.5 -13.5q-36 0 -52 49q-60 190 -233.5 926t-239.5 909q-6 19 -6 40z" />
<glyph unicode="]" horiz-adv-x="669" d="M151 -180q0 23 21 40.5t54 14.5q161 -17 233 -15l-43 -30q0 65 -1 228.5t-1 215.5q0 304 1.5 615.5t3.5 571.5t2 353l25 -42q-48 5 -102 5q-42 0 -116 -7q-37 -3 -56 11.5t-19 37.5q0 24 21 42t54 14q93 -8 140 -8q59 0 105 7q23 3 42 -14t15 -49q-26 -233 -26 -861 q0 -761 18 -1126q2 -34 -19 -49t-48 -12q-68 10 -151 10q-30 0 -78 -2q-37 -2 -56 12.5t-19 36.5z" />
<glyph unicode="^" horiz-adv-x="951" d="M99 333q0 28 12 48q30 53 88.5 291.5t117 480.5t84.5 295q19 39 56 39q29 0 47 -41q28 -65 148.5 -524t157.5 -543q11 -23 11 -44q0 -16 -16 -27.5t-34 -11.5q-36 0 -49 31q-14 36 -75 286.5t-125.5 494.5t-93.5 288h48q-33 -53 -91 -291.5t-112 -482t-71 -287.5 q-17 -41 -62 -41q-16 0 -28.5 11.5t-12.5 27.5z" />
<glyph unicode="_" horiz-adv-x="1099" d="M-98 -238q0 16 17 26.5t48 10.5h1193q31 0 49 -12.5t18 -29.5q0 -15 -16 -24.5t-46 -9.5h-1198q-31 0 -48 11t-17 28z" />
<glyph unicode="`" horiz-adv-x="467" d="M73 1067q-39 52 2 79q44 26 91 -40q42 -57 140 -162q30 -35 30 -54q0 -15 -12 -25t-23 -10q-30 0 -61 36q-37 41 -90.5 94t-76.5 82z" />
<glyph unicode="a" horiz-adv-x="690" d="M78 175q0 82 44.5 143.5t110.5 90t140 28.5q79 0 138 -26q0 -7 3 -41t3 -42q-16 10 -56.5 18.5t-87.5 8.5q-82 0 -141 -45.5t-59 -124.5q0 -56 34 -89.5t89 -33.5q77 0 138.5 68t68.5 119q0 -7 3 -59.5t2 -60.5q-31 -55 -95 -103t-136 -48q-85 0 -142 55t-57 142z M200 714q75 64 169 64q88 0 147 -63.5t59 -198.5q0 -63 -0.5 -174t-0.5 -173q0 -53 14.5 -95t14.5 -51q0 -18 -15 -31t-34 -13q-60 0 -60 91q0 2 -0.5 17t-1.5 38t-1.5 59.5t-0.5 82.5q0 15 -1 32q0 34 1 75v151q0 85 -35 130.5t-89 45.5q-55 0 -95.5 -39t-47.5 -102 q3 -30 -11.5 -43.5t-36.5 -13.5q-25 1 -39 19q-13 17 -13 48q0 40 19 75.5t58 68.5z" />
<glyph unicode="b" horiz-adv-x="741" d="M109 1685v8q-1 33 15 47q18 16 41 17q54 0 54 -83q0 -115 -2.5 -225.5t-2.5 -193.5q0 -609 2 -715l-13 2q31 103 102.5 172t151.5 69q99 0 156.5 -71.5t57.5 -194.5q0 -115 -44 -216t-114 -168.5t-153 -108t-164 -45.5q-6 -1 -13 -1t-13 1q-14 2 -24.5 6.5t-17.5 17.5 t-7 34q0 16 4.5 314t4.5 551q0 443 -21 783zM195 62q8 -1 17 -1q24 0 57 9q46 13 99.5 48t100.5 86t78.5 131t31.5 173q0 84 -33 128t-87 44q-91 0 -162.5 -88.5t-81.5 -178.5q-4 -147 -4 -176q0 -14 1 -44.5t2 -79.5t2 -89z" />
<glyph unicode="c" horiz-adv-x="688" d="M105 367q0 194 76.5 301t187.5 109h6q91 -1 153 -65q64 -66 64 -185q0 -66 -49 -66q-52 0 -52 64v5q0 161 -122 161q-53 0 -93.5 -46t-60.5 -116.5t-20 -151.5q0 -159 52.5 -237.5t127.5 -78.5q46 0 78 35t47 90q15 50 49 50q18 -1 30 -14.5t11 -35.5 q-8 -92 -72.5 -149.5t-159.5 -57.5q-105 0 -179 102t-74 286z" />
<glyph unicode="d" horiz-adv-x="741" d="M79 355q0 190 94.5 305.5t217.5 115.5q91 0 146 -44l-28 -20q-7 806 -14 981q-1 30 15.5 46.5t41.5 16.5q24 0 41.5 -16.5t14.5 -46.5q-14 -169 -14 -583q0 -477 20 -941q0 -55 15 -97t15 -45q0 -18 -12.5 -30t-29.5 -12q-31 0 -49 31q-9 14 -14 57q-3 22 -3 44.5t3 45.5 l13 -5q-33 -93 -90.5 -136.5t-123.5 -43.5q-115 0 -187 97.5t-72 279.5zM175 365q0 -136 44.5 -218t126.5 -82q50 0 87.5 30t54.5 64.5t25 73.5q1 27 1 418q-20 13 -31.5 19t-36.5 12t-55 6q-84 0 -150 -86.5t-66 -236.5z" />
<glyph unicode="e" horiz-adv-x="691" d="M86 323q0 215 81 333.5t195 118.5q52 0 93 -14t67.5 -41t44 -58.5t27 -74t13 -79.5t4.5 -83v-5q0 -40 -14 -54q-15 -15 -61 -15q-50 0 -128 -1t-157 -3t-101 -2v87q8 0 69.5 -3.5t97.5 -3.5q189 0 249 14l-48 -29q1 14 1 28q-1 38 -5 73q-6 47 -20.5 91t-47 69.5 t-79.5 25.5q-52 0 -91 -34t-59.5 -87t-30.5 -105.5t-10 -102.5v-6q0 -148 50 -226q51 -80 147 -80q87 0 127 86q13 29 27 42.5t35 13.5q17 0 28.5 -11t10.5 -31q-2 -71 -72.5 -125.5t-171.5 -54.5q-110 0 -190.5 96t-80.5 251z" />
<glyph unicode="f" horiz-adv-x="494" d="M61 696q0 25 21 40t43 15q33 0 71.5 -5t58.5 -5q33 0 95.5 3t82.5 3q67 0 67 -50q0 -19 -16.5 -34t-44.5 -14q-18 1 -43.5 2t-43.5 2t-33 1q-40 0 -99.5 -4.5t-94.5 -5.5q-32 -2 -48 13t-16 39zM176 1220q0 314 51.5 440.5t190.5 126.5q84 0 136.5 -67t52.5 -191 q0 -46 -17 -69.5t-43 -23.5q-29 0 -42 17.5t-13 43.5q0 12 6.5 41t6.5 37q-1 62 -27 89t-68 27q-51 0 -79.5 -34.5t-44.5 -133.5t-17 -283q0 -59 1.5 -262.5t1.5 -341.5q0 -450 11 -544q1 -11 1 -20q0 -30 -14 -51q-19 -27 -45 -27q-20 0 -34 19t-12 53q2 96 2 187 q0 23 -1 45q0 112 -2 410.5t-2 511.5z" />
<glyph unicode="g" horiz-adv-x="680" d="M78 485q0 136 79.5 213t192.5 79h6q119 0 190 -72q74 -74 74 -208q0 -107 -73.5 -183.5t-201.5 -76.5q-113 0 -190 64.5t-77 183.5zM86 103q0 60 32.5 112.5t80.5 84.5l44 -29q-5 -5 -20 -30t-31.5 -66t-16.5 -71q0 -65 93 -65q23 -1 48 -1h26h20q31 0 66 -2 q32 -2 68 -18.5t70.5 -46.5t56.5 -81.5t22 -113.5q0 -123 -75 -195t-218 -72q-116 0 -187 60.5t-71 168.5q0 97 50 173t104 76q58 0 66 -16q3 -6 -9 -10q-9 -2 -22 -2q-11 0 -27 -13t-32.5 -36t-28 -63t-11.5 -86q0 -80 47.5 -125.5t147.5 -45.5q91 0 134 48.5t43 133.5 q0 80 -40 129.5t-90 50.5h-66q-22 -1 -42.5 -1t-39.5 1q-36 0 -65 4q-60 4 -93.5 45t-33.5 102zM168 499q0 -90 47 -138t131 -48q92 0 140 56.5t48 144.5q0 84 -51.5 132t-133.5 48q-86 0 -133.5 -60.5t-47.5 -134.5zM433 722q-2 13 -2 26q0 45 21 98q27 70 80.5 121.5 t111.5 51.5q49 0 49 -49q0 -30 -44 -51q-69 -15 -115 -76q-38 -49 -38 -114q0 -16 2 -32z" />
<glyph unicode="h" horiz-adv-x="762" d="M133 62q2 183 8 559.5t6 550.5q0 213 -11 532q-2 29 16.5 46t42.5 17q23 0 38 -16.5t14 -46.5q-16 -376 -22 -1154l-21 -4q93 226 250 226q79 0 132 -67t53 -209v-162q0 -180 8 -268v-6q-1 -26 -17 -42q-18 -18 -40 -18q-25 0 -40.5 16t-12.5 46q11 113 11 265 q0 34 -2.5 91.5t-2.5 76.5q-3 184 -99 184q-76 0 -137 -81.5t-77 -181.5q3 -230 13 -350q2 -31 -14.5 -48.5t-44.5 -17.5q-23 0 -37 15.5t-14 46.5z" />
<glyph unicode="i" horiz-adv-x="382" d="M118 1023q0 39 26.5 62t59.5 23q32 0 58 -23q24 -21 24 -57v-5q-3 -44 -29.5 -64t-58.5 -20t-56 22.5t-24 61.5zM137 55q12 158 12 317q0 45 -9 312q-1 29 16.5 45.5t40.5 16.5q21 0 37 -16q15 -15 14 -42q0 -100 -3.5 -193.5t-7.5 -150t-4 -67.5q0 -62 9 -217 q1 -31 -15 -49t-38 -18q-23 1 -39 17q-13 14 -13 36v9z" />
<glyph unicode="j" horiz-adv-x="413" d="M-141 -338q0 79 56 79q19 0 31.5 -18t11.5 -49v-17q0 -118 83 -118q72 0 99.5 64.5t30.5 239.5q0 15 1 189.5t1 188.5v114q0 36 -1 77.5t-2 58.5t-4 82.5t-6 124.5v7q0 62 53 62q28 0 43 -18.5t14 -50.5q-9 -273 -9 -852q0 -199 -55 -283.5t-165 -84.5q-81 0 -131.5 50.5 t-50.5 153.5zM132 1023q0 39 25.5 62t60.5 23q33 0 59 -24q24 -21 24 -56v-5q-3 -44 -30 -64t-59 -20q-33 0 -56.5 22.5t-23.5 61.5z" />
<glyph unicode="k" horiz-adv-x="737" d="M126 1702v8q0 24 14 38q18 16 43 17q26 0 44.5 -16.5t17.5 -46.5q-3 -53 -3 -132q0 -26 1 -58v-151q1 -130 1 -205q0 -74 -1 -261q-1 -125 0 -230q-1 -53 -1 -101q0 -144 3 -254l-20 14q77 67 183.5 194t137.5 191q22 43 66 43q21 0 35.5 -15.5t14.5 -39.5 q0 -27 -31 -68.5t-99.5 -113t-80.5 -85.5l-1 43q22 -78 56 -144.5t88.5 -146.5t63.5 -95q9 -18 9 -32q0 -23 -18 -41t-40 -18q-41 0 -56 38q-33 81 -90.5 192.5t-95.5 173.5l39 -9q-24 -23 -98 -92.5t-87 -81.5l24 62q0 -18 0.5 -54.5t2 -83.5t1.5 -69q1 -32 -16 -50 t-40 -18q-22 0 -37 16t-14 46q8 192 8 688q0 715 -24 948z" />
<glyph unicode="l" horiz-adv-x="398" d="M163 1031q0 488 -12 669q-2 31 12.5 49t38.5 18q24 -1 43 -19q18 -18 18 -45v-3q-15 -411 -15 -957q0 -349 8 -685q1 -32 -15 -49.5t-40 -17.5q-25 1 -41 17t-16 42q0 101 9.5 427.5t9.5 553.5z" />
<glyph unicode="m" horiz-adv-x="1084" d="M139 251q4 126 4 194q0 79 -8 233q-1 30 14.5 49.5t38.5 19.5t41 -19.5t15 -49.5q-1 -13 -3.5 -58.5t-4.5 -58.5l-13 11q39 89 97 135.5t115 46.5q71 0 113.5 -53t52.5 -140l-20 22q85 171 212 171q76 0 124 -67t48 -210v-122q0 -175 9 -289v-6q0 -26 -14 -42 q-16 -18 -39.5 -18t-41 16.5t-14.5 45.5q11 143 11 307q0 17 1 57t0 60q-3 175 -98 175q-70 0 -114 -65t-55 -164q0 -256 7 -366q1 -30 -17 -48t-41 -18q-22 0 -38 16.5t-13 45.5q12 120 12 317q0 82 -2 115q-1 81 -28 124t-73 43q-70 0 -117.5 -68.5t-66.5 -164.5 q-1 -31 -1 -83q0 -79 7 -279q1 -30 -18 -48t-42 -18q-19 0 -33 16q-13 15 -12 42q0 33 5 193z" />
<glyph unicode="n" horiz-adv-x="754" d="M131 68q11 134 11 339q0 169 -7 284v6q0 61 56 61q46 0 46 -54q0 -7 -1 -16q-2 -14 -3 -57.5t-2 -56.5l-10 5q39 87 103 134.5t124 47.5q82 0 134 -66.5t52 -209.5q0 -39 -1 -111.5t-1 -104.5q0 -102 8 -200v-6q0 -27 -16 -43q-18 -18 -41 -18q-22 0 -37.5 16.5 t-12.5 45.5q15 129 15 337q0 18 -2.5 53t-2.5 43q-6 174 -110 174q-65 0 -125 -68.5t-78 -156.5q-1 -37 -1 -107q0 -172 6 -265q2 -36 -10 -54t-45 -18q-21 0 -36 18q-13 16 -13 41v7z" />
<glyph unicode="o" horiz-adv-x="713" d="M79 391q0 183 82.5 285t214.5 102q112 0 185.5 -99.5t73.5 -276.5q0 -198 -83 -310t-201 -114h-4q-119 0 -193 104q-76 106 -75 309zM171 367q0 -153 47.5 -228.5t132.5 -75.5q61 0 105.5 49t65.5 122t21 158q0 131 -47.5 218t-127.5 87q-93 0 -145 -91t-52 -239z" />
<glyph unicode="p" horiz-adv-x="751" d="M133 -455q11 143 11 544q0 93 -3 204.5t-5.5 214t-2.5 175.5q0 30 15 49q16 20 42 20q22 0 35.5 -17.5t11.5 -51.5q-6 -66 -6 -108q0 -15 1 -27l-21 20q37 97 113 153t160 56q96 0 148 -68t52 -192q0 -104 -31.5 -193.5t-80.5 -150t-110 -104.5t-118.5 -65.5 t-108.5 -24.5q-3 -68 -3 -131q0 -65 3 -130.5t7.5 -118.5t4.5 -62q1 -24 -19 -39t-44 -15q-22 0 -37 15.5t-14 46.5zM217 72q12 -4 29.5 -4t39.5 4q44 9 97 41.5t99.5 82.5t78 133.5t31.5 184.5q0 83 -35 129.5t-88 46.5q-60 0 -113.5 -41.5t-84.5 -98.5t-38 -112 q0 -17 -1 -90.5t-1 -108t1.5 -92t5.5 -103.5z" />
<glyph unicode="q" horiz-adv-x="755" d="M86 355q0 190 94.5 305.5t217.5 115.5q88 0 140 -52l-17 -10q2 25 19 42.5t34 17.5q24 0 34 -19q9 -17 9 -62v-9q-2 -82 -2 -268q0 -155 3.5 -458.5t3.5 -421.5q0 -25 -18 -40.5t-40 -15.5t-37.5 16.5t-12.5 47.5q19 149 19 411q0 11 -0.5 61.5t-0.5 85.5v59l15 -17 q-43 -87 -87 -126.5t-115 -39.5q-115 0 -187 97.5t-72 279.5zM174 344q0 -124 47.5 -202t120.5 -78q40 0 71.5 16.5t51 44.5t30.5 54.5t18 54.5q6 28 8 58q1 16 1 40v38q-2 49 -2 59q0 43 -2 117t-2 105q-50 39 -124 39q-32 0 -69 -22.5t-71 -64t-56 -110t-22 -149.5z" />
<glyph unicode="r" horiz-adv-x="531" d="M137 53q11 134 11 353q0 144 -7 286q-1 29 16 45.5t39 16.5t37.5 -16.5t13.5 -45.5q0 -1 -9 -90.5t-16 -187.5l-8 34q41 127 128.5 225t149.5 98q26 0 38.5 -14t12.5 -36q0 -53 -54 -62q-65 -12 -151.5 -117t-97.5 -209q-4 -41 -4 -74q0 -95 8 -201q2 -31 -15.5 -49 t-42.5 -18q-20 1 -36 17q-13 14 -13 36v9z" />
<glyph unicode="s" horiz-adv-x="664" d="M101 184q4 69 57 69q41 0 42 -68q0 -7 -1 -15v-7q0 -45 38 -77q41 -34 101 -34q66 0 105 35t39 96q0 35 -19.5 64t-50 49t-68 39t-75 40t-68 46t-50 63t-19.5 85q0 85 59.5 143.5t159.5 58.5q84 0 143.5 -50.5t59.5 -133.5q6 -38 -10.5 -59t-43.5 -21q-19 0 -32 20.5 t-12 53.5v7q0 44 -24 75q-26 34 -91 34q-52 0 -84.5 -34t-32.5 -82q0 -50 36 -87.5t87.5 -64t103 -54.5t87.5 -75t36 -110q0 -95 -64 -154t-179 -59q-101 0 -169 59q-62 54 -61 134v14z" />
<glyph unicode="t" horiz-adv-x="538" d="M37 689q0 19 16.5 33t47.5 14q27 0 69.5 -2t61.5 -2q62 0 118.5 5t69.5 5h5q63 0 63 -50q0 -18 -16.5 -32t-45.5 -13q-45 2 -134 2q-30 0 -59 -1.5t-66.5 -4.5t-65.5 -4q-31 -1 -47.5 14t-16.5 36zM145 238v710q0 33 16 51t38 18t37 -18.5t11 -50.5q-12 -126 -12 -408 q0 -107 6 -283q3 -195 105 -195q28 0 48 18t28 44q8 50 51 50q15 0 26.5 -12.5t11.5 -30.5q0 -60 -55 -106.5t-123 -46.5q-77 0 -132.5 63t-55.5 197z" />
<glyph unicode="u" horiz-adv-x="756" d="M120 680q1 31 17.5 48.5t38.5 17.5q23 0 39 -16t12 -44q-14 -122 -15 -442q0 -85 34 -131.5t100 -46.5q76 0 127.5 72.5t59.5 165.5q2 78 2 190q0 84 -1 186q-2 31 16 49t42 18q21 0 36 -16.5t11 -44.5q-18 -187 -18 -517q0 -53 16.5 -91t16.5 -50q0 -20 -13 -34t-34 -14 q-36 0 -56 36q-11 15 -15 57q-2 16 -1 34q0 28 4 59l17 -5q-47 -98 -97 -140.5t-121 -42.5q-97 0 -156.5 66t-59.5 209q0 59 -2 205q-1 87 0 150v72z" />
<glyph unicode="v" horiz-adv-x="647" d="M50 702q0 27 14 42.5t35 15.5q19 0 38.5 -14.5t27.5 -42.5q27 -87 66.5 -232t69.5 -251.5t46 -146.5h-26q10 36 73.5 241.5t102.5 387.5q13 56 58 56q22 0 35.5 -13.5t13.5 -39.5q0 -22 -12 -53q-114 -287 -210 -622q-4 -15 -19.5 -24.5t-32.5 -9.5q-15 0 -30 7t-19 21 q-18 55 -63 200.5t-79.5 241.5t-75.5 184q-13 31 -13 52z" />
<glyph unicode="w" horiz-adv-x="977" d="M44 704q0 27 13 42t33 15q19 0 37 -14.5t25 -41.5q21 -75 55 -222.5t63 -260t52 -161.5h-40l151 632q8 30 26 48.5t43 18.5q54 0 68 -71q92 -482 146 -623h-44q85 316 157 638q6 28 22.5 42.5t34.5 14.5q19 0 33 -15t14 -38q0 -16 -7 -36q-29 -71 -93 -294t-93 -337 q-5 -20 -20 -30.5t-31 -10.5t-30 9.5t-18 25.5q-26 101 -82.5 341t-80.5 327h35q-115 -477 -169 -661q-6 -17 -22 -29t-33 -12q-35 0 -45 34q-16 56 -46.5 163t-47 164t-43 139t-53.5 151q-10 29 -10 52z" />
<glyph unicode="x" horiz-adv-x="688" d="M89 39q0 21 17 44q5 7 40.5 52.5t51.5 68.5t47 75.5t59 111.5l6 -37q-23 32 -86 135t-98 158q-19 30 -19 58q0 23 15.5 37t36.5 14q38 0 57 -46q49 -119 157 -296l-21 4q105 177 146 311q13 35 49 35q35 0 45 -32q3 -11 3 -22q0 -22 -13 -45q-17 -32 -83.5 -147.5 t-92.5 -172.5l-4 33q37 -69 97.5 -163.5t82.5 -135.5q11 -12 11 -35q0 -21 -15.5 -35.5t-36.5 -14.5q-39 0 -56 37q-53 132 -136 286l13 2q-119 -211 -175 -299q-20 -31 -47 -31q-19 0 -35 15t-16 35z" />
<glyph unicode="y" horiz-adv-x="681" d="M76 698q0 27 13.5 43t33.5 16q26 0 40 -13t23 -44q31 -102 185 -682l-22 -2q119 433 167 678q11 62 61 62q21 0 35.5 -14t14.5 -42q0 -19 -7 -36q-48 -136 -162 -555t-169 -590q-12 -33 -25.5 -46.5t-40.5 -13.5q-20 0 -36 14t-16 36q0 25 16 53q59 99 151 418l-10 -69 q-16 52 -53 178t-61.5 205.5t-60 182t-65.5 170.5q-12 25 -12 51z" />
<glyph unicode="z" horiz-adv-x="620" d="M89 54q0 26 12 49q22 38 101 158t151.5 238t109.5 195l25 -33h-92q-91 0 -206 -10q-37 -3 -56 12t-19 37q1 23 21 40q17 14 44 14h10q98 -8 164 -8q92 0 127 6q10 2 19 2q26 0 44 -14q18 -13 17 -33q0 -8 -2 -17q-3 -7 -49 -90q-42 -73 -168.5 -276.5t-165.5 -272.5 l-6 31h107q61 0 214 18q29 5 49 -8t20 -37q0 -23 -18 -41.5t-57 -15.5q-31 2 -97 2q-47 0 -132.5 -2t-86.5 -2h-4q-35 0 -55 16q-21 17 -21 42z" />
<glyph unicode="{" horiz-adv-x="699" d="M78 635q0 26 24.5 45t71.5 19q70 15 89.5 178t19.5 621q0 201 62 290t181 89q30 0 47.5 -14.5t17.5 -33.5q0 -21 -19 -36t-53 -15q-36 0 -60.5 -13t-45.5 -49t-31 -107.5t-10 -179.5q0 -34 1 -110q3 -73 1.5 -151.5t-4.5 -154.5t-15.5 -144.5t-31.5 -120.5t-53 -82 t-81 -30v8q104 4 140 -97q27 -78 27 -291q0 -24 -1 -75v-89q0 -110 36.5 -174.5t131.5 -64.5q25 0 40 -12.5t15 -29.5q0 -21 -20.5 -35.5t-59.5 -14.5q-42 0 -79.5 15t-73.5 50t-56.5 104t-19.5 164v77q0 111 -3 178t-9 115.5t-20 70.5t-32.5 31t-49.5 9q-32 -5 -54.5 14.5 t-22.5 45.5z" />
<glyph unicode="|" horiz-adv-x="399" d="M159 1801q-2 36 14 55t40 19q25 0 41.5 -20t15.5 -54q-15 -431 -15 -932q0 -774 12 -1023q1 -31 -14.5 -48t-36.5 -17t-37 17t-15 48q10 326 10 913q0 679 -15 1042z" />
<glyph unicode="}" horiz-adv-x="694" d="M78 1829q0 19 17.5 33.5t47.5 14.5q119 0 181 -89t62 -290q0 -458 19.5 -621t89.5 -178q47 0 71.5 -19t24.5 -45t-22.5 -45.5t-54.5 -14.5q-31 0 -49.5 -9t-32.5 -31t-20 -70.5t-9 -115.5t-3 -178v-77q1 -95 -19.5 -164t-56.5 -104t-73.5 -50t-79.5 -15q-39 0 -59.5 14.5 t-20.5 35.5q0 17 15 29.5t40 12.5q95 0 131.5 64.5t36.5 174.5q0 259 2 297q9 166 64 219q37 35 100 36v-8q-37 -4 -66.5 10.5t-49 47.5t-33.5 72t-21.5 96t-11.5 108.5t-4.5 120t0 118.5t2 116.5t1.5 103.5q0 108 -10 179.5t-31 107.5t-45.5 49t-60.5 13q-34 0 -53 15 t-19 36z" />
<glyph unicode="~" horiz-adv-x="992" d="M76 395q0 33 13 58q29 59 94 102t150 35q44 -4 82.5 -25t66 -48t53.5 -54t58.5 -47t68.5 -24q49 -3 81 23t46 68q22 59 65 59q16 0 29.5 -17.5t13.5 -39.5q0 -20 -13 -45q-29 -61 -88.5 -104t-144.5 -35q-44 4 -80.5 25t-62.5 48.5t-51.5 54.5t-60.5 48t-77 25 q-52 4 -87.5 -23.5t-46.5 -68.5q-8 -31 -26 -47.5t-38 -16.5q-19 0 -32 13.5t-13 35.5z" />
<glyph unicode="&#xa1;" horiz-adv-x="496" d="M162 1490q0 39 27.5 62t62.5 23t62 -22t27 -63q0 -44 -29.5 -64.5t-66.5 -20.5q-32 0 -57.5 22.5t-25.5 62.5z" />
<glyph unicode="&#xa2;" horiz-adv-x="702" d="M110 766q0 120 24 216.5t64 155.5t88 91t100 33q100 2 166 -64.5t66 -185.5q0 -31 -13 -47.5t-33 -18.5t-35 13.5t-15 46.5q0 90 -29.5 135.5t-106.5 45.5q-56 0 -99.5 -61.5t-65 -154t-21.5 -195.5q0 -204 54 -303.5t140 -99.5q63 0 90 30.5t45 93.5q15 50 49 50 q18 -1 29 -14.5t11 -35.5q0 -83 -69 -145t-175 -62q-118 0 -191 122t-73 354zM325 1443q-2 29 14.5 45.5t38.5 16.5q24 0 39.5 -16t14.5 -46q-18 -281 -18 -767q0 -353 9 -547q2 -31 -13.5 -48.5t-36.5 -17.5q-20 0 -34 16t-13 45q18 493 18 730q0 331 -19 589z" />
<glyph unicode="&#xa3;" horiz-adv-x="998" d="M112 61q0 23 18 40t54 17q52 0 72.5 82t20.5 251q0 59 -2 106.5t-7.5 129.5t-8.5 149q-4 77 -4 162q0 671 334 671q101 0 165 -65t64 -185q0 -23 -1 -34q-1 -29 -19.5 -46t-41.5 -17t-37.5 18.5t-8.5 53.5q7 35 7 57q0 61 -36.5 90t-84.5 29q-38 0 -71.5 -15t-66 -53 t-56 -98t-37.5 -156.5t-14 -220.5q0 -69 5 -172q13 -222 13 -401q0 -67 -1.5 -108.5t-8.5 -95t-20 -85.5t-38 -58.5t-61 -34.5l-34 -3q49 27 111 44t111 17q37 0 93 -12q61 -19 113 -19q59 0 97 20t46 54q11 48 55 48q18 0 30.5 -17t12.5 -51q0 -54 -53 -101.5t-161 -48.5 q-39 0 -122 16.5t-141 16.5q-96 0 -209 -32q-33 -9 -55 9.5t-22 47.5zM171 660q0 20 17.5 35.5t47.5 14.5q63 -5 140 -5q20 0 77 5.5t102 8.5q32 1 49.5 -12.5t17.5 -33.5t-16.5 -39.5t-44.5 -18.5q-100 4 -120 4q-37 0 -205 -6q-31 -1 -48 13t-17 34z" />
<glyph unicode="&#xa5;" horiz-adv-x="1074" d="M109 1599q0 25 14.5 40t37.5 16q24 1 37.5 -15t24.5 -57q29 -91 65.5 -187t80.5 -196t72.5 -162t75.5 -161t56 -117h-24q123 309 328 803q2 5 7 18t7 18.5t6.5 15t8 14t8.5 10t11.5 7.5t13.5 2q48 0 48 -47q0 -20 -5 -30q-21 -49 -88.5 -200.5t-96.5 -218.5t-77.5 -180.5 t-80.5 -195.5t-57 -154l30 138q-7 -165 -7 -351q0 -53 7.5 -168.5t8.5 -188.5q0 -32 -20.5 -50.5t-43.5 -18.5t-39.5 18.5t-13.5 50.5q11 119 11 365q0 177 -11 331l23 -121q-49 122 -194.5 442.5t-216.5 497.5q-7 17 -7 32zM194 401q0 21 17.5 35.5t47.5 12.5 q111 -9 300 -9q158 0 299 8q31 1 48 -14t17 -35t-16.5 -33t-46.5 -11q-124 9 -307 9q-137 0 -294 -9q-31 -2 -48 12t-17 34zM194 616q0 21 17.5 35.5t47.5 12.5q118 -8 300 -8q140 0 299 6q31 2 48 -12.5t17 -35.5q0 -20 -16.5 -34t-46.5 -10q-70 9 -265 9q-214 0 -336 -9 q-31 -2 -48 12t-17 34z" />
<glyph unicode="&#xa8;" horiz-adv-x="658" d="M121 988q0 35 25.5 56.5t57.5 21.5q31 0 57 -21.5t23 -56.5q-3 -41 -28.5 -60.5t-58.5 -19.5q-29 0 -52.5 21.5t-23.5 58.5zM376 988q0 36 25.5 57t58.5 21q31 0 56.5 -21.5t23.5 -56.5q-3 -41 -29 -60.5t-59 -19.5q-29 0 -52.5 21.5t-23.5 58.5z" />
<glyph unicode="&#xa9;" horiz-adv-x="1307" d="M88 833q0 246 67 448t191.5 321t280.5 119q135 0 239 -63.5t169.5 -180.5t99.5 -276t36 -357q2 -278 -60.5 -486.5t-184.5 -324t-289 -115.5q-261 0 -405 231.5t-144 683.5zM180 803q0 -176 26.5 -315.5t70.5 -228.5t105 -147t125.5 -82t137.5 -24q68 0 130 26.5t119 88 t98.5 153.5t66 232t24.5 315q0 103 -10 199.5t-31 189t-56.5 168.5t-83 134t-114 90t-145.5 32q-113 0 -202.5 -66.5t-145.5 -181.5t-85.5 -263.5t-29.5 -319.5zM352 805q0 318 87 488t218 170t188 -103.5t48 -286.5q-2 -37 -17 -53.5t-35 -16.5q-44 0 -44 65 q15 56 12.5 111t-17.5 99t-50.5 71t-86.5 27q-50 0 -91 -48t-66 -127.5t-38.5 -179t-13.5 -206.5q0 -197 24.5 -322t68 -179.5t109.5 -54.5q78 0 118 65t32 176q0 31 16 46.5t33 15.5q18 -1 32 -18t14 -44q0 -144 -73.5 -238.5t-174.5 -94.5q-132 0 -212.5 162.5 t-80.5 475.5z" />
<glyph unicode="&#xab;" horiz-adv-x="944" d="M150 381q0 38 30 61q30 24 90.5 108.5t94.5 159.5q21 49 59 49q21 0 36 -16t15 -39q0 -29 -23 -53q-60 -65 -123 -149t-63 -116q0 -33 65 -130.5t117 -154.5q22 -23 22 -46q0 -22 -16.5 -36.5t-37.5 -14.5q-34 0 -50 37q-39 93 -89.5 168.5t-95.5 108.5q-31 23 -31 63z M460 381q0 39 29 61q30 24 90.5 108.5t94.5 159.5q22 49 59 49q21 0 36 -16t15 -39q0 -29 -23 -53q-62 -69 -124 -151t-62 -114q0 -33 65 -130.5t118 -154.5q21 -24 21 -46t-16.5 -36.5t-37.5 -14.5q-34 0 -50 37q-39 94 -89 169t-95 108q-31 22 -31 63z" />
<glyph unicode="&#xad;" d="M119 439q0 23 17 39.5t47 13.5q53 -8 127 -8q64 0 128 7q30 3 47.5 -13.5t17.5 -38.5t-16.5 -37.5t-46.5 -14.5q-140 7 -142 7q-45 0 -115 -7q-30 -4 -47 12t-17 40z" />
<glyph unicode="&#xae;" horiz-adv-x="1265" d="M95 824q0 244 67 444t189.5 316.5t275.5 116.5q177 0 299.5 -112t182 -306t62.5 -459q1 -278 -61 -486.5t-184 -324t-289 -115.5q-266 0 -404 234t-138 692zM182 783q0 -176 26.5 -315.5t70 -228.5t104 -147t125 -82t137.5 -24q86 0 161 44t137 136.5t98 255t36 379.5 q0 126 -13.5 239t-45.5 220t-81 184t-124 123.5t-170 46.5q-112 0 -201.5 -66.5t-145.5 -181.5t-85 -263.5t-29 -319.5zM417 1375q0 15 5 25t14.5 15t16.5 7t19 3.5t13 1.5q78 23 151 23q112 0 176.5 -80t64.5 -241q0 -112 -53 -236t-137 -219l-7 56q13 -59 41.5 -136.5 t72.5 -183t62 -153.5q11 -26 -2 -50.5t-39 -24.5q-16 0 -30.5 11.5t-19.5 28.5q-91 316 -148 448l40 -28q-1 -1 -16 -12.5t-24 -18t-26.5 -19t-31 -20.5t-30.5 -16.5t-31 -12.5l21 44q-1 -100 4 -182.5t10 -127.5t5 -51q0 -25 -11.5 -41t-31.5 -16q-22 0 -38.5 15t-16.5 38 q0 36 1 117.5t1 131.5q0 553 -25 904zM465 1335l53 65q4 -726 6 -800l-39 23q37 19 75 48t79.5 74.5t73 98.5t52 124.5t20.5 147.5q0 249 -148 249q-125 0 -172 -30z" />
<glyph unicode="&#xb4;" horiz-adv-x="441" d="M120 890q0 21 30 54q98 105 140 162q47 66 90 40q42 -26 3 -79q-23 -29 -76.5 -82t-90.5 -94q-31 -36 -61 -36q-11 0 -23 10t-12 25z" />
<glyph unicode="&#xb8;" horiz-adv-x="494" d="M92 -222q0 20 9.5 47t34.5 88.5t45 117.5l69 5q0 -26 -33 -120.5t-39 -121.5l-12 6q17 13 54 26t64 12q48 -3 81.5 -39.5t32.5 -115.5q-1 -81 -68.5 -153.5t-139.5 -72.5q-22 0 -35.5 13.5t-13.5 31.5t14 36t38 21q48 8 90.5 41.5t42.5 79.5q0 37 -15.5 60t-41.5 23 q-28 0 -60 -18t-56 -18q-25 0 -43 13t-18 38z" />
<glyph unicode="&#xbb;" horiz-adv-x="934" d="M160 704q0 23 15 39t36 16q37 0 59 -49q17 -39 94.5 -148t90.5 -120q29 -23 29 -61q0 -41 -31 -63q-45 -33 -95 -108t-89 -169q-16 -37 -49 -37q-22 0 -38.5 14.5t-16.5 36.5q0 23 22 46q50 55 116 151.5t66 122.5q0 34 -35.5 90t-64.5 89.5t-76 84.5q-8 8 -11 12 q-22 26 -22 53zM459 704q0 23 15 39t36 16q37 0 59 -49q18 -39 95 -147.5t90 -120.5q30 -23 30 -61q0 -40 -32 -63q-44 -34 -94.5 -109t-89.5 -168q-16 -37 -49 -37q-21 0 -37.5 14.5t-16.5 36.5q0 24 22 46q50 55 115.5 151.5t65.5 122.5q0 34 -36.5 91.5t-64.5 90 t-76 84.5q-6 7 -9 10q-23 26 -23 53z" />
<glyph unicode="&#xbf;" horiz-adv-x="879" d="M412 1489q0 39 27.5 62t62.5 23t62 -22t27 -63q0 -44 -29.5 -64.5t-66.5 -20.5q-32 0 -57.5 22.5t-25.5 62.5z" />
<glyph unicode="&#xc1;" horiz-adv-x="933" d="M54 68q30 93 86 339.5t147.5 683t95.5 452.5q8 37 29.5 57.5t47.5 20.5q25 0 45 -21t27 -59q47 -272 154.5 -744.5t181.5 -724.5q10 -35 -4.5 -58t-40.5 -23q-16 0 -30.5 12t-19.5 34q-275 1233 -330 1511h27q-29 -140 -101 -478.5t-125.5 -599t-83.5 -425.5 q-5 -25 -20 -38t-33 -13q-27 0 -45 21t-8 53zM213 509v100q68 -8 249 -8q208 0 257 8v-100q-62 7 -244 7q-184 0 -262 -7zM371 1727q4 20 31 38.5t79 49.5t92 66q50 40 88 34q22 -5 34 -24.5t4 -40.5q-10 -25 -40.5 -44t-92 -48.5t-103.5 -55.5q-34 -21 -63 -16 q-35 5 -29 41z" />
<glyph unicode="&#xc9;" horiz-adv-x="760" d="M152 50q15 280 15 876q0 63 0.5 163.5t0.5 147.5t-1 113t-3 115t-6 98q-6 74 67 62q35 -7 130 -7q113 0 188 9q34 4 54.5 -14t20.5 -42q0 -23 -19 -37t-56 -12q-209 13 -297 4l18 35q0 -145 -3 -427.5t-3 -430.5l-17 29q149 0 228 9q70 7 70 -44q0 -44 -64 -51 q-8 -1 -77 -1q-7 0 -74.5 1t-89.5 0l24 33q0 -112 0.5 -250.5t1.5 -243.5t1 -122l-27 23q274 0 430 15q33 4 54.5 -14t21.5 -42q0 -21 -20 -36t-56 -12q-60 3 -160 3q-210 0 -284 -11q-28 -3 -48.5 12t-19.5 49zM322 1727q4 20 31 38.5t79 49.5t92 66q50 40 88 34 q22 -5 34 -24.5t4 -40.5q-10 -25 -40.5 -44t-92 -48.5t-103.5 -55.5q-34 -21 -63 -16q-35 5 -29 41z" />
<glyph unicode="&#xcd;" horiz-adv-x="492" d="M156 1727q4 20 31 38.5t79 49.5t92 66q50 40 88 34q22 -5 34 -24.5t4 -40.5q-10 -25 -40.5 -44t-92 -48.5t-103.5 -55.5q-34 -21 -63 -16q-35 5 -29 41zM189 1565q-3 30 11 46.5t38 16.5q25 0 44 -16.5t18 -46.5q-9 -203 -9 -388q0 -628 12 -1111q1 -30 -17.5 -48 t-42.5 -18q-23 0 -38.5 16t-14.5 46q13 358 13 802q0 505 -14 701z" />
<glyph unicode="&#xd1;" horiz-adv-x="1072" d="M152 65q10 272 10 892q0 446 -2 595q0 35 22 55.5t52 20.5q52 0 69 -50q45 -132 176.5 -477.5t258 -671.5t139.5 -361h-28q-10 171 -21 707t-20 792q0 30 16.5 46.5t38.5 16.5q23 0 39 -16.5t16 -46.5q-6 -660 -6 -811q0 -466 8 -683q1 -31 -20.5 -50.5t-49.5 -19.5 q-21 0 -38.5 12.5t-25.5 35.5q-75 220 -181.5 482t-212 528t-188.5 520h41q1 -389 7.5 -927.5t6.5 -593.5q0 -29 -15.5 -45t-36.5 -16q-23 0 -39.5 17.5t-15.5 48.5zM288 1774q0 55 49.5 96t105.5 41q37 0 67.5 -14t47 -31t41.5 -31.5t53 -15.5q32 -3 54 37q9 30 24.5 46 t31.5 16q18 0 31.5 -13.5t13.5 -35.5q0 -55 -46 -95.5t-102 -40.5q-32 0 -59.5 14t-45 31t-44 31.5t-56.5 15.5q-20 1 -38.5 -9t-24.5 -26q-20 -66 -58 -66q-18 0 -31.5 13.5t-13.5 36.5z" />
<glyph unicode="&#xd3;" horiz-adv-x="1027" d="M89 831q0 159 29.5 303.5t83.5 255t136.5 176t181.5 65.5q209 0 311.5 -207t104.5 -593q1 -408 -115.5 -631t-325.5 -223q-207 0 -306.5 214t-99.5 640zM185 808q0 -171 18 -302.5t48 -212t72.5 -131.5t86 -70t95.5 -19q54 0 100.5 21.5t91 75t75.5 136t50 214t19 299.5 q0 109 -10 209t-33.5 195.5t-59 165t-91 112t-125.5 42.5q-78 0 -143.5 -64.5t-107 -169.5t-64 -235t-22.5 -266zM424 1727q4 20 31 38.5t79 49.5t92 66q50 40 88 34q22 -5 34 -24.5t4 -40.5q-10 -25 -40.5 -44t-92 -48.5t-103.5 -55.5q-34 -21 -63 -16q-35 5 -29 41z" />
<glyph unicode="&#xda;" horiz-adv-x="1044" d="M152 1551q-3 30 15 46.5t45 16.5q26 0 45 -16.5t17 -46.5q-13 -420 -13 -730q0 -257 11 -436q9 -152 76.5 -230.5t172.5 -78.5q106 0 178 81t83 227q11 179 11 323q0 320 -19 850q-1 30 16.5 46t41.5 16q25 0 43 -16t17 -46q-2 -82 -5.5 -505t-18.5 -647q-6 -83 -29 -157 t-63.5 -136t-106 -98.5t-147.5 -36.5q-176 0 -262 130.5t-87 363.5v47q0 80 1 209.5t1 213.5q0 365 -23 610zM431 1727q4 20 31 38.5t79 49.5t92 66q50 40 88 34q22 -5 34 -24.5t4 -40.5q-10 -25 -40.5 -44t-92 -48.5t-103.5 -55.5q-34 -21 -63 -16q-35 5 -29 41z" />
<glyph unicode="&#xdc;" horiz-adv-x="1044" d="M152 1551q-3 30 15 46.5t45 16.5q26 0 45 -16.5t17 -46.5q-13 -420 -13 -730q0 -257 11 -436q9 -152 76.5 -230.5t172.5 -78.5q106 0 178 81t83 227q11 179 11 323q0 320 -19 850q-1 30 16.5 46t41.5 16q25 0 43 -16t17 -46q-2 -82 -5.5 -505t-18.5 -647q-6 -83 -29 -157 t-63.5 -136t-106 -98.5t-147.5 -36.5q-176 0 -262 130.5t-87 363.5v47q0 80 1 209.5t1 213.5q0 365 -23 610zM291 1837q0 37 26.5 59t59.5 22t60.5 -22.5t24.5 -58.5q-3 -43 -30 -63t-62 -20q-31 0 -55 22t-24 61zM580 1837q0 37 26.5 59t60.5 22q33 0 60.5 -22.5 t24.5 -58.5q-3 -43 -30.5 -63t-62.5 -20q-31 0 -55 22t-24 61z" />
<glyph unicode="&#xe1;" horiz-adv-x="690" d="M78 175q0 82 44.5 143.5t110.5 90t140 28.5q79 0 138 -26q0 -7 3 -41t3 -42q-16 10 -56.5 18.5t-87.5 8.5q-82 0 -141 -45.5t-59 -124.5q0 -56 34 -89.5t89 -33.5q77 0 138.5 68t68.5 119q0 -7 3 -59.5t3 -60.5q-31 -55 -95.5 -103t-136.5 -48q-85 0 -142 55t-57 142z M123 575q2 75 77 139t169 64q88 0 147 -63.5t59 -198.5q0 -63 -0.5 -174t-0.5 -173q0 -53 14.5 -95t14.5 -51q0 -18 -15 -31t-34 -13q-60 0 -60 91q0 2 -0.5 17t-1.5 38t-1.5 59.5t-1 82.5t0.5 107v151q0 85 -35 130.5t-89 45.5q-55 0 -95.5 -39t-47.5 -102 q3 -30 -11.5 -43.5t-36.5 -13.5q-25 0 -39 18.5t-13 53.5zM307 890q0 21 30 54q98 105 140 162q47 66 90 40q42 -26 3 -79q-23 -29 -76.5 -82t-90.5 -94q-31 -36 -61 -36q-11 0 -23 10t-12 25z" />
<glyph unicode="&#xe9;" horiz-adv-x="691" d="M86 323q0 215 81 333.5t195 118.5q52 0 93 -14t67.5 -41t44 -58.5t27 -74t13 -79.5t4.5 -83q1 -44 -14 -59t-61 -15q-50 0 -128 -1t-157 -3t-101 -2v87q8 0 69.5 -3.5t97.5 -3.5q189 0 249 14l-48 -29q2 54 -3.5 101t-20.5 91t-47.5 69.5t-79.5 25.5q-52 0 -91 -34 t-59.5 -87t-30.5 -105.5t-10 -102.5q-1 -153 50 -232.5t147 -79.5q87 0 127 86q13 29 27 42.5t35 13.5q17 0 28.5 -11t10.5 -31q-2 -71 -72.5 -125.5t-171.5 -54.5q-110 0 -190.5 96t-80.5 251zM285 890q0 21 30 54q98 105 140 162q47 66 90 40q42 -26 3 -79 q-23 -29 -76.5 -82t-90.5 -94q-31 -36 -61 -36q-11 0 -23 10t-12 25z" />
<glyph unicode="&#xed;" horiz-adv-x="385" d="M136 62q11 124 11 310q0 104 -7 314q-1 28 16.5 44.5t40.5 16.5q22 0 38.5 -16t15.5 -45q-14 -278 -14 -409q0 -48 7 -211q2 -30 -15.5 -48t-40.5 -18q-22 0 -38 16.5t-14 45.5zM108 890q0 21 30 54q98 105 140 162q47 66 90 40q42 -26 3 -79q-23 -29 -76.5 -82 t-90.5 -94q-31 -36 -61 -36q-11 0 -23 10t-12 25z" />
<glyph unicode="&#xf1;" horiz-adv-x="754" d="M131 68q11 134 11 339q0 169 -7 284q-3 67 56 67q52 0 45 -70q-2 -14 -3 -57.5t-2 -56.5l-10 5q39 87 103 134.5t124 47.5q82 0 134 -66.5t52 -209.5q0 -39 -1 -111.5t-1 -104.5q0 -102 7 -200q2 -31 -15.5 -49t-40.5 -18q-22 0 -37.5 16.5t-12.5 45.5q15 129 15 337 q0 18 -2.5 53t-2.5 43q-6 174 -110 174q-65 0 -125 -68.5t-78 -156.5q-1 -37 -1 -107q0 -172 6 -265q2 -36 -10 -54t-45 -18q-21 0 -36 18.5t-13 47.5zM155 942q0 48 42 89t96 41q32 0 58 -11.5t40.5 -26t35.5 -27t45 -13.5q15 -1 29 9t21 28q11 27 21 37.5t28 10.5 q17 0 27 -16t10 -39q0 -47 -41 -88.5t-90 -41.5q-40 0 -87.5 38.5t-86.5 39.5q-20 1 -37.5 -8.5t-23.5 -25.5q-11 -31 -22.5 -42t-31.5 -11q-15 0 -24 16.5t-9 40.5z" />
<glyph unicode="&#xf3;" horiz-adv-x="713" d="M79 391q0 183 82.5 285t214.5 102q112 0 185.5 -99.5t73.5 -276.5q0 -198 -83 -310t-201 -114q-121 -2 -196.5 103.5t-75.5 309.5zM171 367q0 -153 47.5 -228.5t132.5 -75.5q61 0 105.5 49t65.5 122t21 158q0 131 -47.5 218t-127.5 87q-93 0 -145 -91t-52 -239zM271 890 q0 21 30 54q98 105 140 162q47 66 90 40q42 -26 3 -79q-23 -29 -76.5 -82t-90.5 -94q-31 -36 -61 -36q-11 0 -23 10t-12 25z" />
<glyph unicode="&#xfa;" horiz-adv-x="756" d="M120 680q1 31 17.5 48.5t38.5 17.5q23 0 39 -16t12 -44q-14 -122 -15 -442q0 -85 34 -131.5t100 -46.5q76 0 127.5 72.5t59.5 165.5q2 78 2 190q0 84 -1 186q-2 31 16 49t42 18q21 0 36 -16.5t11 -44.5q-18 -187 -18 -517q0 -53 16.5 -91t16.5 -50q0 -20 -13 -34t-34 -14 q-36 0 -56 36q-11 15 -15 57q-2 16 -1 34q0 28 4 59l17 -5q-47 -98 -97 -140.5t-121 -42.5q-97 0 -156.5 66t-59.5 209q0 59 -2 205q-1 87 0 150v72zM355 890q0 21 30 54q98 105 140 162q47 66 90 40q42 -26 3 -79q-23 -29 -76.5 -82t-90.5 -94q-31 -36 -61 -36 q-11 0 -23 10t-12 25z" />
<glyph unicode="&#xfc;" horiz-adv-x="756" d="M120 680q1 31 17.5 48.5t38.5 17.5q23 0 39 -16t12 -44q-14 -122 -14 -442q0 -85 33.5 -131.5t99.5 -46.5q76 0 127.5 72.5t59.5 165.5q4 137 1 376q-2 31 16 49t42 18q21 0 36 -16.5t11 -44.5q-18 -187 -18 -517q0 -53 16.5 -91t16.5 -50q0 -20 -13 -34t-34 -14 q-36 0 -56 36q-10 15 -14.5 57t2.5 93l17 -5q-47 -98 -97 -140.5t-121 -42.5q-97 0 -156.5 66t-59.5 209q0 60 -1.5 205.5t-0.5 221.5zM172 988q0 35 25.5 56.5t57.5 21.5q31 0 57 -21.5t23 -56.5q-3 -41 -28.5 -60.5t-58.5 -19.5q-29 0 -52.5 21.5t-23.5 58.5zM427 988 q0 36 25.5 57t58.5 21q31 0 56.5 -21.5t23.5 -56.5q-3 -41 -29 -60.5t-59 -19.5q-29 0 -52.5 21.5t-23.5 58.5z" />
<glyph unicode="&#x131;" horiz-adv-x="385" d="M136 62q11 124 11 310q0 104 -7 314q-1 28 16.5 44.5t40.5 16.5q22 0 38.5 -16t15.5 -45q-14 -278 -14 -409q0 -48 7 -211q2 -30 -15.5 -48t-40.5 -18q-22 0 -38 16.5t-14 45.5z" />
<glyph unicode="&#x2c6;" horiz-adv-x="693" d="M149 899q0 25 29 54q75 73 120 154q25 46 68 46q35 0 60 -44q10 -18 19 -32.5t15 -24t17.5 -23.5t16 -20t21.5 -25.5t24 -28.5q3 -4 10 -11.5t10 -11t7 -9.5t5.5 -12t1.5 -13q0 -19 -14.5 -31.5t-34.5 -12.5q-38 0 -59 43q-4 8 -15 32.5t-18.5 38t-20 34.5t-28.5 38 t-35 32l27 -2q-14 -13 -27.5 -29t-23 -28.5t-21.5 -32.5t-17 -28.5t-16.5 -30t-13.5 -24.5q-25 -43 -64 -43q-17 0 -30 12.5t-13 32.5z" />
<glyph unicode="&#x2da;" horiz-adv-x="691" d="M198 1058q0 101 52 157t129 58q79 2 127.5 -53t48.5 -154q0 -75 -54 -135t-134 -60q-74 0 -121.5 50t-47.5 137zM277 1071q0 -58 25 -89.5t65 -31.5q48 0 76.5 38.5t28.5 98.5q0 50 -28.5 79.5t-70.5 29.5q-44 0 -70 -39t-26 -86z" />
<glyph unicode="&#x2dc;" horiz-adv-x="786" d="M163 942q0 48 42 89t96 41q32 0 58 -11.5t40.5 -26t35.5 -27t45 -13.5q15 -1 29 9t21 28q11 27 21 37.5t28 10.5q17 0 27 -16t10 -39q0 -47 -41 -88.5t-90 -41.5q-40 0 -87.5 38.5t-86.5 39.5q-20 1 -37.5 -8.5t-23.5 -25.5q-11 -31 -22.5 -42t-31.5 -11q-15 0 -24 16.5 t-9 40.5z" />
<glyph unicode="&#x2000;" horiz-adv-x="959" />
<glyph unicode="&#x2001;" horiz-adv-x="1918" />
<glyph unicode="&#x2002;" horiz-adv-x="959" />
<glyph unicode="&#x2003;" horiz-adv-x="1918" />
<glyph unicode="&#x2004;" horiz-adv-x="639" />
<glyph unicode="&#x2005;" horiz-adv-x="479" />
<glyph unicode="&#x2006;" horiz-adv-x="319" />
<glyph unicode="&#x2007;" horiz-adv-x="319" />
<glyph unicode="&#x2008;" horiz-adv-x="239" />
<glyph unicode="&#x2009;" horiz-adv-x="383" />
<glyph unicode="&#x200a;" horiz-adv-x="106" />
<glyph unicode="&#x2010;" d="M119 439q0 23 17 39.5t47 13.5q53 -8 127 -8q64 0 128 7q30 3 47.5 -13.5t17.5 -38.5t-16.5 -37.5t-46.5 -14.5q-140 7 -142 7q-45 0 -115 -7q-30 -4 -47 12t-17 40z" />
<glyph unicode="&#x2011;" d="M119 439q0 23 17 39.5t47 13.5q53 -8 127 -8q64 0 128 7q30 3 47.5 -13.5t17.5 -38.5t-16.5 -37.5t-46.5 -14.5q-140 7 -142 7q-45 0 -115 -7q-30 -4 -47 12t-17 40z" />
<glyph unicode="&#x2012;" d="M119 439q0 23 17 39.5t47 13.5q53 -8 127 -8q64 0 128 7q30 3 47.5 -13.5t17.5 -38.5t-16.5 -37.5t-46.5 -14.5q-140 7 -142 7q-45 0 -115 -7q-30 -4 -47 12t-17 40z" />
<glyph unicode="&#x2013;" horiz-adv-x="913" d="M119 424q0 21 17 35t48 12q89 -8 272 -8q136 0 272 7q32 1 49 -12.5t17 -34.5q0 -19 -16.5 -33t-46.5 -13q-160 4 -249 4q-76 0 -298 -4q-32 -1 -48.5 13t-16.5 34z" />
<glyph unicode="&#x2014;" horiz-adv-x="1238" d="M119 423q0 22 17 36t48 12q136 -11 440 -11q208 0 429 7q31 2 48.5 -12t17.5 -34q0 -18 -16 -30.5t-45 -11.5q-82 5 -272 5q-205 0 -602 -10q-31 -1 -48 14t-17 35z" />
<glyph unicode="&#x2018;" horiz-adv-x="410" d="M114 1594q0 107 67 189q43 51 69 45q23 -8 23 -27q0 -17 -17 -41q-27 -30 -38 -54t-12 -66q23 8 56.5 -12t33.5 -56q0 -40 -23.5 -63.5t-63.5 -23.5t-67.5 31.5t-27.5 77.5z" />
<glyph unicode="&#x2019;" horiz-adv-x="395" d="M114 1745q0 36 21.5 57.5t60.5 21.5q30 0 57.5 -22.5t27.5 -65.5q0 -98 -65 -194q-35 -50 -63 -44q-21 4 -21 28q0 16 17 36q13 16 21 36t10.5 32.5t4.5 29.5t2 18q-19 -8 -46 13t-27 54z" />
<glyph unicode="&#x201a;" horiz-adv-x="392" d="M114 42q0 36 21.5 57.5t60.5 21.5q30 0 56.5 -22.5t26.5 -66.5q0 -46 -19.5 -105t-43.5 -89q-43 -50 -63 -43q-21 4 -21 27q0 16 17 37q13 16 21 36t10.5 32.5t4.5 29.5t2 18q-20 -8 -46.5 13t-26.5 54z" />
<glyph unicode="&#x201c;" horiz-adv-x="670" d="M114 1594q0 107 67 189q43 51 69 45q23 -8 23 -27q0 -17 -17 -41q-27 -30 -38 -54t-12 -66q23 8 56.5 -12t33.5 -56q0 -40 -23.5 -63.5t-63.5 -23.5t-67.5 31.5t-27.5 77.5zM374 1594q0 104 68 189q43 51 69 45q24 -9 24 -27q0 -17 -19 -41q-27 -31 -38 -55t-12 -65 q24 8 58 -12t34 -56q0 -40 -24 -63.5t-64 -23.5t-68 31.5t-28 77.5z" />
<glyph unicode="&#x201d;" horiz-adv-x="670" d="M114 1745q0 40 23.5 64t63.5 24t67.5 -31.5t27.5 -78.5q0 -108 -68 -189q-40 -51 -68 -44q-24 8 -24 26q0 19 18 40q27 32 38 56t12 66q-23 -9 -56.5 11t-33.5 56zM374 1745q0 40 24 64t64 24t68 -32t28 -78q0 -107 -69 -189q-40 -51 -69 -44q-23 8 -23 26q0 20 19 40 q27 33 37.5 56.5t11.5 65.5q-23 -9 -57 11t-34 56z" />
<glyph unicode="&#x201e;" horiz-adv-x="629" d="M114 42q0 36 21.5 57.5t60.5 21.5q30 0 56.5 -22.5t26.5 -66.5q0 -46 -19.5 -105t-43.5 -89q-43 -50 -63 -43q-21 4 -21 27q0 16 17 37q13 16 21 36t10.5 32.5t4.5 29.5t2 18q-20 -8 -46.5 13t-26.5 54zM351 42q0 36 21.5 57.5t60.5 21.5q30 0 56.5 -22.5t26.5 -66.5 q0 -46 -19.5 -105t-43.5 -89q-22 -26 -36 -36.5t-27 -6.5q-21 4 -21 27q0 16 17 37q13 16 21 36t10.5 32.5t4.5 29.5t2 18q-20 -8 -46.5 13t-26.5 54z" />
<glyph unicode="&#x2026;" horiz-adv-x="1383" d="M139 54q0 39 27.5 62t62.5 23t62 -22t27 -63q0 -44 -29.5 -64.5t-66.5 -20.5q-32 0 -57.5 22.5t-25.5 62.5zM600 54q0 39 27.5 62t62.5 23t62 -22t27 -63q0 -44 -29.5 -64.5t-66.5 -20.5q-32 0 -57.5 22.5t-25.5 62.5zM1061 54q0 39 27.5 62t62.5 23t62 -22t27 -63 q0 -44 -29.5 -64.5t-66.5 -20.5q-32 0 -57.5 22.5t-25.5 62.5z" />
<glyph unicode="&#x202f;" horiz-adv-x="383" />
<glyph unicode="&#x2039;" horiz-adv-x="635" d="M150 381q0 38 30 61q30 24 90.5 108.5t94.5 159.5q21 49 59 49q21 0 36 -16t15 -39q0 -29 -23 -53q-60 -65 -123 -149t-63 -116q0 -33 65 -130.5t117 -154.5q22 -23 22 -46q0 -22 -16.5 -36.5t-37.5 -14.5q-34 0 -50 37q-39 93 -89.5 168.5t-95.5 108.5q-31 23 -31 63z " />
<glyph unicode="&#x203a;" horiz-adv-x="634" d="M160 704q0 23 15 39t36 16q37 0 59 -49q17 -39 94.5 -148t90.5 -120q29 -23 29 -61q0 -41 -31 -63q-45 -33 -95 -108t-89 -169q-16 -37 -49 -37q-22 0 -38.5 14.5t-16.5 36.5q0 23 22 46q50 55 116 151.5t66 122.5q0 34 -35.5 90t-64.5 89.5t-76 84.5q-8 8 -11 12 q-22 26 -22 53z" />
<glyph unicode="&#x205f;" horiz-adv-x="479" />
<glyph unicode="&#x20ac;" horiz-adv-x="1024" d="M24 627q0 21 17 35.5t47 12.5q112 -9 242 -9q111 0 261 7q30 2 47.5 -12.5t17.5 -35.5q0 -20 -16.5 -33t-46.5 -11q-124 9 -252 9q-96 0 -253 -9q-31 -2 -47.5 12t-16.5 34zM25 897q0 21 17.5 35.5t47.5 12.5q113 -9 235 -9q114 0 257 8q30 1 47.5 -14t17.5 -35 q0 -21 -17 -34.5t-46 -9.5q-62 8 -212 8q-170 0 -282 -8q-31 -2 -48 12t-17 34zM145 916q0 164 24 299.5t71.5 238t125 159.5t178.5 57q78 0 136 -23.5t102 -76t66.5 -144t22.5 -221.5q0 -31 -16 -48.5t-39 -17.5q-21 0 -36.5 15.5t-15.5 43.5q0 210 -51 295.5t-169 85.5 q-79 0 -138 -57.5t-92 -157t-49 -216.5t-16 -251q0 -185 15 -327.5t40.5 -235t63 -151t80.5 -82.5t95 -24q109 0 169.5 95t59.5 274q0 32 17.5 50t40.5 18q21 0 35.5 -15.5t13.5 -44.5q-11 -216 -104 -346.5t-243 -130.5q-195 0 -291 240t-96 699z" />
<glyph unicode="&#x2122;" horiz-adv-x="2126" d="M154 1570q0 21 17.5 39t46.5 17q199 -9 258 -9q65 0 360 8q30 1 48.5 -16.5t18.5 -37.5q0 -19 -16 -31.5t-45 -11.5q-260 8 -288 7l27 32q-9 -108 -9 -336q0 -364 9 -801q1 -32 -14.5 -49.5t-37.5 -17.5q-21 0 -38.5 16.5t-17.5 45.5q0 21 -0.5 64.5t-0.5 66.5 q0 104 5 297.5t5 297.5q0 296 -9 418l20 -34q-61 1 -275 -13q-31 -1 -47.5 13t-16.5 35zM1055 426q12 213 12 569q0 120 -6 302t-6 248q0 42 19.5 62t50.5 20q27 0 46 -18t27 -46l330 -526h-23q16 12 59.5 89.5t116.5 207t138 227.5q18 69 83 69q25 0 41 -25.5t14 -64.5 q-3 -33 -4 -74t0 -113.5t1 -99.5q0 -314 16 -831q1 -30 -15.5 -46t-40.5 -16q-23 0 -40.5 17.5t-17.5 48.5q15 287 15 614q0 431 -4 537l36 1q-8 -23 -57 -124.5t-131.5 -253t-150.5 -249.5q-6 -19 -22.5 -29.5t-34.5 -10.5q-31 0 -42 40q-26 32 -179.5 294.5t-173.5 321.5 l34 -1q-2 -18 -0.5 -191.5t1.5 -190.5q0 -161 4 -316.5t9.5 -281t6.5 -168.5q1 -27 -18 -43t-40 -16q-22 0 -38.5 18t-15.5 49z" />
<glyph unicode="&#xe000;" horiz-adv-x="765" d="M0 765h765v-765h-765v765z" />
<glyph horiz-adv-x="0" />
</font>
</defs>
</svg>
