<?xml version="1.0" standalone="no"?>
<!DOCTYPE svg PUBLIC "-//W3C//DTD SVG 1.1//EN" "http://www.w3.org/Graphics/SVG/1.1/DTD/svg11.dtd" >
<svg xmlns="http://www.w3.org/2000/svg">
<metadata>
This is a custom SVG webfont generated by Font Squirrel.
Copyright   : Copyright c 2011 Juan Pablo del Peral juanhuertatipograficacomar with Reserved Font Names Alegreya Alegreya SC
Designer    : Juan Pablo del Peral
Foundry     : Juan Pablo del Peral
Foundry URL : wwwhuertatipograficacomar
</metadata>
<defs>
<font id="AlegreyaRegular" horiz-adv-x="815" >
<font-face units-per-em="2048" ascent="1638" descent="-410" />
<missing-glyph horiz-adv-x="413" />
<glyph unicode=" "  horiz-adv-x="413" />
<glyph unicode="&#x09;" horiz-adv-x="413" />
<glyph unicode="&#xa0;" horiz-adv-x="413" />
<glyph unicode="!" horiz-adv-x="583" d="M125 92q0 53 35 90t92 37q55 0 86 -33.5t31 -83.5q0 -53 -36 -90t-93 -37q-55 0 -85 34t-30 83zM201 1364l14 20l170 37l18 -22l-106 -971l-57 -14l-23 16z" />
<glyph unicode="&#x22;" horiz-adv-x="610" d="M121 1300l143 29l15 -16q-29 -225 -72 -434l-51 -29l-23 4q4 117 1 216t-8 165zM371 1300l143 29l14 -16q-29 -225 -71 -434l-51 -29l-23 4q4 117 1 216t-8 165z" />
<glyph unicode="#" horiz-adv-x="1019" d="M23 446l30 76l223 -2l27 117l25 106l-224 -2l-6 21l31 76l219 -2l76 327l82 11l16 -13l-80 -327h109l108 -3l76 332l82 11l17 -13l-80 -330h221l8 -18l-39 -74l-213 2l-18 -79l-33 -146h219l8 -18l-39 -74l-209 2l-73 -338l-80 -16l-14 12l75 344l-143 2l-74 -2l-76 -340 l-79 -16l-15 12l76 344l-227 -2zM369 518h106l113 -2l26 121l25 106l-139 2l-78 -2l-21 -81z" />
<glyph unicode="$" horiz-adv-x="940" d="M109 55q23 129 22 277l92 8q0 -150 34 -202t136 -58l35 358q-20 8 -29 15q-63 31 -102 53t-83 57t-65.5 78t-21.5 94q0 121 100.5 205t255.5 96l29 303l53 9l13 -19l-29 -291q143 -4 244 -39l8 -14q-29 -125 -39 -270l-80 -8l-12 8q4 31 4 73q0 68 -31 101t-104 41 l-33 -340q2 -2 6 -2q61 -29 89 -42.5t79 -45t74.5 -57t44 -65.5t20.5 -83q0 -127 -102.5 -212t-267.5 -99l-27 -293l-53 -6l-11 14l27 283q-72 0 -138.5 14t-96.5 28l-31 13zM285 791q0 -51 41 -90t118 -80l29 311q-82 -4 -135 -43t-53 -98zM459 80q88 6 140 48t52 110 q0 90 -162 170z" />
<glyph unicode="%" horiz-adv-x="1374" d="M72 987q0 147 87 244.5t222 97.5q133 0 203.5 -90t70.5 -215q0 -147 -83 -251.5t-224 -104.5q-127 0 -201.5 89t-74.5 230zM147 -131q268 408 451 694l524 826l80 -39l10 -29q-356 -530 -536 -819q-440 -696 -440 -697l-78 39zM168 1016q0 -109 62.5 -163t146.5 -54 q72 0 127 40t55 138q0 94 -57.5 155.5t-155.5 61.5q-82 0 -130 -49t-48 -129zM766 295q0 147 87 244.5t222 97.5q133 0 204 -90t71 -215q0 -147 -83.5 -252t-224.5 -105q-129 0 -202.5 89.5t-73.5 230.5zM862 324q0 -109 62.5 -163.5t146.5 -54.5q72 0 127 40t55 139 q0 94 -57 155.5t-156 61.5q-82 0 -130 -49.5t-48 -128.5z" />
<glyph unicode="&#x26;" horiz-adv-x="1433" d="M113 328q0 66 27.5 125t67.5 97t80 65.5t67 39.5l28 13v14q-168 176 -168 322q0 139 117 232t291 93q66 0 128 -11t91 -24l28 -12l4 -31l-98 -151l-20 -2q-72 66 -116 88t-101 22q-82 0 -131.5 -42t-49.5 -113q0 -100 64 -190.5t246 -246.5l327 -282q37 74 37 176 q0 242 -160 242q-25 0 -53 -5.5t-46 -9.5l-17 -4l-29 88q43 33 109 37l421 25q154 14 158 22l21 -49l-27 -63q-14 -27 -38.5 -34t-104.5 -7h-205l-6 -13q86 -76 86 -200q0 -131 -82 -258l287 -242v-33q-96 -63 -127 -63q-18 0 -261 217q-86 -86 -194.5 -135.5t-212.5 -49.5 q-201 0 -319.5 95.5t-118.5 257.5zM266 369q0 -121 93.5 -193t248.5 -72q174 1 295 105l-461 412q-80 -37 -128 -106t-48 -146z" />
<glyph unicode="'" horiz-adv-x="360" d="M121 1300l143 29l15 -16q-29 -225 -72 -434l-51 -29l-23 4q4 117 1 216t-8 165z" />
<glyph unicode="(" horiz-adv-x="632" d="M172 334v354q0 141 40 259t96.5 185.5t112.5 114.5t96 65l40 17h8l27 -59l-2 -8q-12 -4 -30.5 -15.5t-67 -54.5t-85 -98.5t-67.5 -155.5t-31 -219v-354q0 -355 217 -546q43 -38 76 -55v-10l-43 -53h-8q-8 2 -21.5 8t-53.5 30.5t-75.5 54.5t-78.5 83t-75 114.5t-53.5 152 t-21.5 190.5z" />
<glyph unicode=")" horiz-adv-x="632" d="M31 1266v10l43 53h8q8 -2 21.5 -8t53.5 -30.5t75.5 -54.5t78.5 -83t75 -114.5t53.5 -152t21.5 -190.5v-354q0 -141 -40 -259t-96.5 -185.5t-112.5 -114.5t-96 -65l-40 -17h-8l-27 59l2 9q12 4 30.5 15t66.5 54t85 98.5t68 156t31 218.5v355q0 355 -217 545q-43 38 -76 55 z" />
<glyph unicode="*" horiz-adv-x="933" d="M139 1217q0 78 19 139l18 8q113 -59 205 -129l-12 -68l-13 -10q-104 35 -217 60zM186 969q90 90 187 155l59 -32l6 -15q-29 -39 -59.5 -86t-46.5 -75l-17 -27q-74 25 -127 61zM397 1485q74 25 138 24l14 -14q-23 -125 -60 -233l-69 -11l-12 9zM475 1081l49 47l17 2 q29 -41 63.5 -85t54.5 -67l21 -24q-45 -61 -96 -100l-19 2q-57 115 -90 225zM518 1227l2 16q106 33 211 80q45 -63 66 -123l-9 -18q-14 -2 -38.5 -5t-88 -7.5t-114.5 -2.5z" />
<glyph unicode="+" horiz-adv-x="1036" d="M37 498l22 100q217 -2 396 -2l2 412l104 16l21 -12q-12 -252 -13 -416l418 12l12 -20l-16 -105l-414 -2l2 -397l-100 -23l-18 13q2 227 2 407l-406 -2z" />
<glyph unicode="," horiz-adv-x="487" d="M31 -270q72 49 117 116.5t45 130.5q0 83 -66 144l4 29q70 53 119 53q45 0 74.5 -42t29.5 -118q0 -106 -86 -201.5t-200 -163.5l-37 31v21z" />
<glyph unicode="-" horiz-adv-x="663" d="M74 446l12 107l356 41l133 18l15 -18l-10 -111l-492 -53z" />
<glyph unicode="." horiz-adv-x="487" d="M123 92q0 53 35 90t92 37q55 0 86 -33.5t31 -83.5q0 -53 -36 -90t-93 -37q-55 0 -85 34t-30 83z" />
<glyph unicode="/" horiz-adv-x="673" d="M70 -209q109 360 188 672l236 919h94l16 -20q-162 -590 -250 -922l-172 -665h-98z" />
<glyph unicode="0" horiz-adv-x="1091" d="M78 481q0 240 141 396.5t356 156.5q195 0 317 -138t122 -357q0 -244 -140.5 -404t-355.5 -160q-199 0 -319.5 139.5t-120.5 366.5zM193 512q0 -170 100 -275.5t262 -105.5q154 0 249 97.5t95 252.5q0 170 -102.5 278.5t-264.5 108.5q-154 0 -246.5 -97t-92.5 -259z" />
<glyph unicode="1" horiz-adv-x="724" d="M72 881l8 86q121 14 225 30q164 27 203 37h4l12 -35q-41 -35 -56 -68.5t-19 -103.5q-12 -326 -13 -598q0 -82 20.5 -110.5t80.5 -28.5l108 6l4 -8l-18 -94q-172 6 -273 6l-258 -25l13 95q115 10 149.5 54t34.5 179v467q0 72 -25.5 94.5t-85.5 22.5l-108 -13z" />
<glyph unicode="2" horiz-adv-x="972" d="M55 12l162 181q334 379 334 548q0 74 -41 115t-113 41q-70 0 -137 -49t-115 -133h-18l-23 92q51 98 149.5 162.5t197.5 64.5q127 0 203.5 -67.5t76.5 -178.5q0 -92 -92 -228t-344 -421l8 -14h313q113 0 156 35t74 151l82 11q-43 -172 -60 -322l-24 -14q-481 14 -658 14 l-110 -25z" />
<glyph unicode="3" horiz-adv-x="849" d="M41 -66l10 13q86 -18 164 -19q154 0 258.5 78t104.5 195q0 205 -367 207l-10 10l-11 71l134 33q82 39 134 105.5t52 134.5q0 63 -46 103t-114 40q-57 0 -121.5 -28.5t-111.5 -75.5h-21l-20 86q20 16 56 40.5t125 65.5t157 41q121 0 193.5 -62.5t72.5 -166.5 q0 -82 -61.5 -160t-163.5 -131v-10q276 -66 276 -254q0 -164 -181 -314.5t-378 -150.5q-70 0 -99.5 34.5t-31.5 114.5z" />
<glyph unicode="4" horiz-adv-x="915" d="M8 182l8 76l566 774l4 1l4 1l65 -20v-721h191l12 -17l-16 -112q-76 2 -187 6q2 -165 15 -346l-11 -14l-145 -25l-12 18q10 211 12 371q-316 8 -506 8zM166 293h348v459h-18z" />
<glyph unicode="5" horiz-adv-x="880" d="M33 -66l10 13q86 -18 166 -19q164 0 272.5 76t108.5 197q0 100 -94.5 158.5t-333.5 99.5l-19 22l35 500l17 16l387 17q61 4 86.5 19.5t42.5 60.5l67 8l-49 -242l-12 -12q-211 16 -449 16l-14 -258q236 -55 363.5 -132t127.5 -212q0 -119 -95 -232.5t-230 -179t-258 -65.5 q-63 0 -94 31.5t-35 117.5z" />
<glyph unicode="6" horiz-adv-x="931" d="M82 403q0 125 38 239t97 195t132 148.5t145.5 110.5t132 73.5t97.5 42.5l38 13l14 -11l23 -61q-16 -6 -46 -18.5t-109 -60.5t-144.5 -105.5t-133 -155.5t-98.5 -211l8 -4q166 106 228 107q166 0 260 -103.5t94 -232.5q0 -164 -114.5 -279t-292.5 -115q-168 0 -268.5 122 t-100.5 306zM246 416q0 -156 65.5 -249t180.5 -93q98 0 156.5 65.5t58.5 179.5q0 106 -71 185.5t-177 79.5q-104 0 -207 -76q-6 -46 -6 -92z" />
<glyph unicode="7" horiz-adv-x="860" d="M78 653q29 199 39 355l12 10q123 -8 250 -8h432l45 -58q-211 -424 -459 -991l-51 -176h-14l-123 37l-21 45l512 1003l-354 -14q-100 -4 -134 -41t-54 -149z" />
<glyph unicode="8" horiz-adv-x="993" d="M115 254q0 215 264 338q-106 57 -166.5 125.5t-60.5 173.5q0 133 105 233.5t263 100.5q129 0 224.5 -72t95.5 -203q0 -188 -203 -297q117 -61 181.5 -132.5t64.5 -180.5q0 -152 -121 -258.5t-297 -106.5q-145 0 -247.5 75t-102.5 204zM264 303q0 -96 72 -168t178 -72 q92 0 159.5 62.5t67.5 155.5q0 61 -46 115.5t-84 76t-137 71.5q-15 7 -23 11q-186 -80 -187 -252zM295 952q0 -37 17.5 -70.5t35 -55t64.5 -51.5t68.5 -41t82.5 -44q123 74 123 217q0 106 -56.5 164.5t-144.5 58.5q-84 0 -137 -53t-53 -125z" />
<glyph unicode="9" horiz-adv-x="931" d="M74 641q0 164 114.5 278.5t292.5 114.5q168 0 268.5 -121.5t100.5 -306.5q0 -125 -38 -238.5t-97.5 -194.5t-132 -148.5t-145 -110.5t-132 -73.5t-97.5 -43.5l-38 -12l-14 10l-23 62q16 6 46 18t109 59.5t144.5 104.5t133 155.5t96.5 211.5l-7 6q-166 -106 -227 -107 q-166 0 -260 103.5t-94 232.5zM225 690q0 -109 69.5 -186.5t178.5 -77.5q96 0 207 76q6 43 6 92q0 156 -66.5 249t-179.5 93q-98 0 -156.5 -65.5t-58.5 -180.5z" />
<glyph unicode=":" horiz-adv-x="487" d="M115 92q0 53 34.5 90t92.5 37q55 0 85.5 -33.5t30.5 -83.5q0 -53 -36 -90t-93 -37q-55 0 -84.5 34t-29.5 83zM115 666q0 53 34.5 90t92.5 37q55 0 85.5 -34t30.5 -83q0 -53 -36 -90t-93 -37q-55 0 -84.5 33.5t-29.5 83.5z" />
<glyph unicode=";" horiz-adv-x="487" d="M31 -270q72 49 117 116.5t45 130.5q0 83 -66 144l4 29q70 53 119 53q45 0 74.5 -42t29.5 -118q0 -106 -86 -201.5t-200 -163.5l-37 31v21zM115 666q0 53 34.5 90t92.5 37q55 0 85.5 -34t30.5 -83q0 -53 -36 -90t-93 -37q-55 0 -84.5 33.5t-29.5 83.5z" />
<glyph unicode="&#x3c;" horiz-adv-x="1036" d="M63 512l5 96l415 176q186 80 412 166l18 -10l15 -102q-229 -80 -398 -150l-315 -123v-12l344 -143l371 -162l2 -23l-62 -82q-217 102 -385 174l-405 172z" />
<glyph unicode="=" horiz-adv-x="1036" d="M37 340l22 100q307 -2 490 -2l438 13l12 -21l-16 -104l-465 -2l-469 -2zM37 662l22 100q307 -2 490 -2l438 12l12 -20l-16 -105l-465 -2l-469 -2z" />
<glyph unicode="&#x3e;" horiz-adv-x="1036" d="M104 868l62 82q217 -102 385 -174l405 -172l17 -22l-4 -97l-416 -176q-186 -80 -412 -166l-18 11l-14 102q229 80 397 150l315 122v13l-344 143l-371 162z" />
<glyph unicode="?" horiz-adv-x="737" d="M119 1305l67 108l29 8q190 -6 324.5 -103t134.5 -235q0 -66 -18.5 -118t-60.5 -96t-72.5 -68.5t-96.5 -67.5t-92 -61l-6 -19l43 -194l-6 -17l-125 -34l-19 8l-49 246l6 28l244 156q117 80 117 176q0 236 -416 260zM178 92q0 53 35 90t92 37q55 0 86 -33.5t31 -83.5 q0 -53 -36 -90t-93 -37q-55 0 -85 34t-30 83z" />
<glyph unicode="@" horiz-adv-x="1703" d="M68 385q0 168 62.5 324.5t173 278.5t277.5 194.5t361 72.5q305 0 499.5 -181t194.5 -451q0 -266 -175 -457t-484 -191q-74 0 -74 60l88 426l-12 4q-184 -350 -383 -490q-80 0 -122 76t-42 203q0 168 71.5 329.5t180.5 260t217 98.5l205 -33l18 52l11 2l63 -31l16 -25 q-119 -408 -172 -788l9 -8q217 0 330.5 124.5t113.5 337.5q0 266 -164 417t-440 151q-303 0 -490.5 -210t-187.5 -509q0 -317 181 -529t542 -233v-14l-53 -74q-385 18 -600 247.5t-215 565.5zM575 354q0 -86 17.5 -149.5t42.5 -63.5q55 0 175 178.5t234 444.5 q-111 68 -206 67q-98 0 -180.5 -145t-82.5 -332z" />
<glyph unicode="A" horiz-adv-x="1183" d="M-37 -6l17 96q57 6 91.5 40t67.5 118l400 1046l129 35h16q172 -637 326 -1098q25 -76 65.5 -106.5t130.5 -38.5l4 -8l-14 -84q-147 6 -217 6t-146.5 -5t-117.5 -10l-41 -5l-6 14l8 80q104 8 143 24.5t39 53.5q0 40 -18 98l-68 223q-49 2 -213 2q-98 0 -223 -16l-76 -213 q-18 -55 -18 -80q0 -84 123 -84h116l4 -8l-12 -88q-150 14 -285 14zM373 559h180q74 0 190 10l-161 537h-15z" />
<glyph unicode="B" horiz-adv-x="1222" d="M119 -25l12 95q94 18 127 54t33 122l2 860q0 66 -15.5 88.5t-60.5 22.5l-70 -5l-4 9l15 90q150 -6 227 -6l242 8q195 0 299 -81t104 -231q0 -102 -62.5 -184t-174.5 -131q150 -33 233.5 -115t83.5 -196q0 -160 -143.5 -277.5t-337.5 -117.5q-43 0 -133.5 10t-143.5 10z M436 227q0 -78 53.5 -110.5t180.5 -32.5q123 0 193.5 68.5t70.5 185.5q-1 227 -277 276l-213 -4zM449 719q193 -16 223 -17q8 2 20.5 6.5t46 24t59 46t46 76.5t20.5 112q0 131 -88 194.5t-272 63.5q-20 0 -27.5 -9.5t-9.5 -37.5q-12 -197 -18 -459z" />
<glyph unicode="C" horiz-adv-x="1288" d="M82 608q0 311 202.5 516t512.5 205q76 0 165 -12t140 -25l51 -12l8 -12q-39 -154 -51 -342l-98 -8q6 55 6 100q0 190 -301 190q-207 0 -329 -144t-122 -388q0 -270 128 -434t341 -164q139 0 224 79t124 244l99 9q-41 -186 -56 -334l-12 -19q-176 -82 -420 -82 q-281 0 -446.5 171t-165.5 462z" />
<glyph unicode="D" horiz-adv-x="1439" d="M119 -25l12 95q94 18 127 54t33 122l2 860q0 66 -15.5 88.5t-60.5 22.5l-70 -5l-4 9l15 90q137 -6 215 -6l311 8q299 0 486.5 -170t187.5 -443q0 -305 -205 -515t-504 -210q-190 25 -295 25q-45 0 -104.5 -6t-94.5 -12zM438 268q0 -113 51.5 -150.5t206.5 -37.5 q221 0 348 152.5t127 418.5q0 270 -162.5 415.5t-465.5 145.5q-43 0 -57.5 -9t-16.5 -36q-31 -788 -31 -899z" />
<glyph unicode="E" horiz-adv-x="1210" d="M119 -20l12 94q92 12 126 48t34 124l2 860q0 66 -15.5 88.5t-60.5 22.5l-70 -5l-4 9l15 90q162 -6 284 -6q434 0 615 24l6 -12q-35 -152 -47 -340l-98 -8q4 59 4 88q0 100 -48.5 122.5t-265.5 22.5q-100 0 -120.5 -11t-22.5 -69l-16 -397q20 0 99 -1t111 -1l250 22l9 -10 l-29 -121q-176 6 -287 7q-76 0 -158 -15q-8 -295 -8 -391q0 -84 25.5 -103.5t136.5 -19.5q172 0 243.5 17.5t103.5 65.5t48 167l90 10l7 -10q-37 -170 -56 -344l-10 -12q-426 14 -621 14z" />
<glyph unicode="F" horiz-adv-x="1048" d="M119 -25l12 95q94 18 127 54t33 122l2 860q0 66 -15.5 88.5t-60.5 22.5l-70 -5l-4 9l15 90q162 -6 284 -6q403 0 576 24l6 -12q-35 -158 -47 -346l-98 -8q4 66 4 94q0 100 -43 122.5t-232 22.5q-100 0 -120.5 -11t-22.5 -69l-16 -432l210 -2l215 23l9 -11l-29 -122 q-156 6 -252 6q-76 0 -158 -15l-8 -340q0 -84 18.5 -111.5t71.5 -27.5l146 6l4 -8l-19 -96q-195 8 -305 8z" />
<glyph unicode="G" horiz-adv-x="1366" d="M82 608q0 322 198.5 521.5t520.5 199.5q170 0 397 -49l8 -12q-41 -154 -53 -342l-96 -8q6 55 6 110q0 94 -72.5 137t-236.5 43q-233 0 -363.5 -140t-130.5 -394q0 -270 128 -433t339 -163q160 1 281 78v250q0 70 -21.5 90t-91.5 20h-141l-4 8l18 103q139 -8 260 -9 l176 11l8 -45q-37 -31 -50 -97.5t-13 -218.5q0 -119 14 -180l-12 -18q-25 -10 -67 -25.5t-165.5 -42.5t-238.5 -27q-274 0 -436 171t-162 462z" />
<glyph unicode="H" horiz-adv-x="1544" d="M119 -25l12 95q94 18 127 54t33 122l2 860q0 66 -15.5 88.5t-60.5 22.5l-70 -5l-4 9l15 90q150 -6 227 -6q39 0 94.5 5t89.5 9l35 4l-8 -92q-88 -14 -109.5 -44t-25.5 -140l-12 -332l344 -2q131 0 303 20l2 373q0 66 -15.5 88.5t-60.5 22.5l-70 -5l-4 9l15 90 q0 -6 200 -6q43 0 104.5 5t101.5 9l40 4l-8 -92q-76 -10 -101.5 -34t-29.5 -83q-29 -598 -29 -885q0 -84 18.5 -111.5t71.5 -27.5l92 6l4 -8l-18 -94q-162 6 -252 6l-235 -4l18 92q96 2 126 43t30 176v309q-217 2 -312 2l-340 -22l-8 -367q0 -84 18.5 -111.5t71.5 -27.5 l92 6l5 -8l-19 -94q0 6 -174 6q-90 0 -199.5 -8t-111.5 -17z" />
<glyph unicode="I" horiz-adv-x="739" d="M115 -25l12 95q96 18 130 54t34 122l2 860q0 66 -15.5 88.5t-60.5 22.5l-86 -5l-4 9l14 90q160 -6 244 -6l236 18l-9 -92q-86 -10 -114.5 -34t-32.5 -83q-29 -594 -29 -885q0 -84 18.5 -111.5t71.5 -27.5l109 6l4 -8l-18 -94q-172 6 -269 6z" />
<glyph unicode="J" horiz-adv-x="669" d="M47 -227l6 16q125 76 170 169.5t45 277.5l2 870q0 66 -14 87t-61 21l-97 -8l-4 8l15 91h221l237 18l-8 -92q-72 -10 -92.5 -30.5t-24.5 -86.5q-23 -487 -26 -876q-2 -209 -81 -335t-253 -198z" />
<glyph unicode="K" horiz-adv-x="1286" d="M117 -2l20 92q96 10 125 39t29 117l2 860q0 66 -15.5 88.5t-60.5 22.5l-70 -5l-4 9l15 90q150 -6 227 -6q39 0 94.5 5t89.5 9l35 4l-8 -92q-76 -12 -104.5 -38t-30.5 -85l-25 -879v-15q0 -70 16 -96q18 -28 74 -28l92 6l5 -8l-19 -94q-162 6 -252 6zM496 645l2 29 l366 381q63 63 64 106q0 53 -129 62l-4 8l14 88q150 -14 225 -14l189 8l8 -15l-14 -84q-53 -10 -98.5 -42.5t-137.5 -129.5l-330 -346l344 -448q74 -96 132.5 -135t129.5 -39l9 -8l-13 -70q-147 -25 -170 -25q-102 0 -229 176z" />
<glyph unicode="L" horiz-adv-x="1038" d="M139 -20l13 94q80 12 109.5 48t29.5 124l2 860q0 66 -15.5 88.5t-60.5 22.5l-70 -5l-4 9l15 90q152 -6 229 -6q39 0 94.5 5t89.5 9l35 4l-8 -92q-23 -4 -40 -7t-30.5 -9.5t-22.5 -9.5t-16.5 -16t-10.5 -18.5t-6 -25t-4 -27.5t-3 -36.5t-2 -41.5q-25 -342 -25 -790 q0 -104 30 -131t144 -27q178 0 234.5 51.5t91.5 239.5l90 10l6 -10q-37 -186 -59 -389l-10 -12q-356 18 -551 18q-68 0 -136.5 -5t-103.5 -10z" />
<glyph unicode="M" horiz-adv-x="1734" d="M94 -16l10 94q66 8 94.5 42t37.5 116q90 821 90 884q0 53 -42 80t-137 33l-6 10l17 72q158 -10 223 -10l139 8q82 -264 169 -518t132 -376l45 -122h11q160 426 354 1012l24 -1q25 -1 60 -2t51 -1l221 12l4 -8l-10 -76q-88 -10 -125 -36t-37 -77q0 -158 54 -835 q14 -121 32.5 -158t67.5 -37l57 4l4 -8l-18 -92q-121 6 -195 6l-213 -16l9 94q121 14 120 102l-69 885h-11l-395 -1090l-49 -14l-397 1104h-10q-70 -858 -70 -911q0 -63 63 -64l84 2l4 -8l-18 -92q-131 8 -199 8q-37 0 -81 -4t-69 -8z" />
<glyph unicode="N" horiz-adv-x="1472" d="M111 1239l16 76q119 -10 176 -10l137 8q152 -236 324 -490t268 -390l96 -136h11v829q0 88 -68 88l-78 -2l-4 9l19 92q125 -8 194 -8l203 16l-10 -94q-72 -10 -105 -40t-35 -89l-28 -1151l-60 -29q-178 276 -368.5 559t-291.5 426l-101 144h-11l-10 -875q0 -45 14.5 -63.5 t49.5 -18.5l104 2l4 -8l-18 -92q-129 8 -217 8l-191 -16l10 94q125 14 127 129l27 895q0 63 -38 90t-140 37z" />
<glyph unicode="O" horiz-adv-x="1417" d="M82 608q0 303 194.5 512t479.5 209q256 0 417.5 -176t161.5 -455q0 -305 -197.5 -514t-488.5 -209q-252 0 -409.5 176.5t-157.5 456.5zM258 674q0 -262 127 -428t328 -166q195 0 317.5 148.5t122.5 383.5q0 262 -130 428t-337 166q-190 0 -309 -147.5t-119 -384.5z" />
<glyph unicode="P" horiz-adv-x="1128" d="M129 -16l14 94q90 16 119 48t29 120l2 860q0 66 -15.5 88.5t-60.5 22.5l-70 -5l-4 9l15 90q150 -6 227 -6l258 8q213 0 325.5 -94.5t112.5 -270.5q0 -174 -143 -311t-326 -137h-172l-4 -201q0 -139 15.5 -174t74.5 -35l111 6l4 -8l-18 -94q0 6 -189 6q-82 0 -191.5 -6 t-113.5 -10zM444 621l218 -31q247 41 247 317q0 160 -93 232.5t-292 72.5q-37 0 -45 -4t-10 -24q-19 -260 -25 -563z" />
<glyph unicode="Q" horiz-adv-x="1427" d="M82 608q0 303 194.5 512t479.5 209q256 0 417.5 -176t161.5 -455q0 -252 -140 -444.5t-361 -253.5v-10q217 -147 361 -209t267 -62l164 21l8 -6l13 -37q-154 -139 -195 -139q-145 0 -291.5 75.5t-511.5 341.5q-252 0 -409.5 176.5t-157.5 456.5zM258 674q0 -262 127 -428 t328 -166q195 0 317.5 148.5t122.5 383.5q0 262 -130 428t-337 166q-190 0 -309 -147.5t-119 -384.5z" />
<glyph unicode="R" horiz-adv-x="1251" d="M117 -8l18 92q96 10 126 42t30 120l2 860q0 66 -15.5 88.5t-60.5 22.5l-70 -5l-4 9l15 90q150 -6 227 -6l252 8q190 0 301 -86t111 -236q0 -123 -79 -225t-222 -168l225 -356q59 -98 115.5 -136t138.5 -38l8 -9l-12 -69l-174 -23q-51 0 -109.5 52.5t-108.5 142.5 l-219 397h-170l-6 -305q0 -111 24.5 -139.5t123.5 -28.5l4 -8l-19 -86q0 2 -217 6zM446 674l211 -21q8 2 23.5 7.5t53.5 29t67.5 54t53.5 87t24 123.5q0 270 -375 271q-20 0 -27.5 -9.5t-9.5 -37.5q-19 -314 -21 -504z" />
<glyph unicode="S" horiz-adv-x="1085" d="M117 66q24 152 24 341v15l92 10q0 -221 50.5 -288.5t216.5 -67.5q129 0 206.5 60.5t77.5 164.5q0 45 -22.5 85t-68.5 75t-89 59.5t-111 59.5q-14 6 -20 10q-78 41 -124 68.5t-101 73.5t-82 99.5t-27 116.5q0 162 136.5 271.5t334.5 109.5q182 0 314 -51l6 -12 q-33 -158 -45 -346l-80 -9l-12 11q6 43 6 106q0 109 -53.5 150t-190.5 41q-113 0 -185.5 -56.5t-72.5 -140.5q0 -82 70.5 -142.5t207.5 -131.5q203 -105 269 -162q110 -94 110 -211q0 -176 -141 -288t-364 -112q-86 0 -166 17.5t-118 35.5l-38 17z" />
<glyph unicode="T" horiz-adv-x="1118" d="M18 958q25 180 31 355l19 16l170 -22h634l175 22l18 -16q2 -78 10 -164t15 -134l6 -48l-97 -9q-12 72 -18 105t-24.5 69.5t-33 47t-58.5 24t-85 15.5t-127 6q-32 -318 -32 -957v-39q0 -76 26.5 -107.5t89.5 -31.5l113 6l6 -8l-18 -94q-205 6 -301 6l-281 -8l16 88 q143 12 174 50t31 202v893q-96 -4 -138 -6t-90 -14.5t-61.5 -23t-33 -46t-24.5 -66.5t-15 -102z" />
<glyph unicode="U" horiz-adv-x="1394" d="M72 1221l14 90q154 -6 231 -6q39 0 93.5 5t88.5 9l33 4l-8 -92q-76 -10 -101.5 -33.5t-29.5 -83.5l-16 -602q0 -203 88 -311.5t254 -108.5q168 0 256 89t88 257l-12 668q-4 72 -17.5 91.5t-58.5 19.5l-88 -5l-4 9l14 90q154 -6 231 -6q39 0 89.5 5t79.5 9l30 4l-8 -92 q-90 -12 -115.5 -32.5t-25.5 -84.5v-688q0 -215 -133.5 -333t-374.5 -118q-215 0 -332 118t-117 335v678q0 66 -15.5 88.5t-60.5 22.5l-69 -5z" />
<glyph unicode="V" horiz-adv-x="1249" d="M-18 1223l14 88q168 -6 237 -6q49 0 126 5t129 11l53 6l6 -14l-8 -80q-111 -8 -147 -24.5t-36 -61.5q0 -29 64.5 -266.5t129.5 -459.5l64 -222h19q340 877 340 942q0 82 -142 82h-106l-4 8l12 88q158 -14 293 -14l225 6l-16 -97q-63 -2 -88 -20t-47 -78l-441 -1106 l-131 -45q-182 601 -354 1133q-37 115 -188 116z" />
<glyph unicode="W" horiz-adv-x="1908" d="M-14 1223l12 88q164 -6 231 -6q66 0 139.5 5t115.5 11l42 6l6 -14l-8 -80q-104 -8 -140 -24.5t-36 -59.5q0 -35 62.5 -272.5t126.5 -457.5l63 -220h12l289 786l-37 113q-20 59 -63 85.5t-121 30.5l-4 9l14 88q164 -6 232 -6q55 0 128.5 5t120.5 11l48 6l6 -14l-8 -80 q-106 -8 -142.5 -24.5t-36.5 -61.5q0 -31 63.5 -267.5t127.5 -458.5l63 -222h13q332 895 331 952q0 72 -139 72h-102l-4 8l14 88q154 -14 285 -14l217 6l-15 -97q-61 -4 -85.5 -21t-45.5 -77l-430 -1106l-127 -45q-117 420 -256 869h-12l-291 -824l-131 -45 q-170 602 -342 1133q-37 115 -184 116q0 2 -1 4.5t-1 4.5z" />
<glyph unicode="X" horiz-adv-x="1343" d="M25 6l14 84q84 25 156 89.5t176 193.5l225 278l-268 402q-98 145 -281 170l-4 8l12 80q201 -6 295 -6q72 0 141.5 4t102.5 8l33 4l6 -14l-6 -72q-160 -12 -160 -74q0 -37 231 -389q20 29 62.5 83t73 96t63.5 88t51.5 80t18.5 50q0 49 -119 62l-4 8l12 80q150 -14 225 -14 l199 8l8 -15l-12 -75q-88 -18 -137 -58.5t-142 -154.5l-247 -314l299 -436q55 -82 119.5 -122t160.5 -48l4 -8l-14 -88q-160 6 -254 6l-317 -16l-7 14l9 80q159 8 159 71q0 32 -41 91l-223 335l-188 -249q-63 -84 -84 -119t-21 -64q0 -53 119 -61l4 -8l-14 -88 q-150 14 -225 14l-203 -8z" />
<glyph unicode="Y" horiz-adv-x="1101" d="M-39 1231l12 80q131 -6 226 -6l290 16l7 -14l-7 -72q-92 -8 -123.5 -23.5t-31.5 -50.5q0 -27 57.5 -159t113.5 -250.5t58 -118.5h10l234 434q33 59 33 102q0 53 -129 62l-4 8l12 80q152 -14 227 -14l189 8l8 -15l-13 -75q-94 -18 -134 -57.5t-113 -171.5q-13 -25 -21 -38 l-205 -360q-20 -37 -29.5 -88t-11.5 -91t-4 -188v-14q0 -69 18 -95q19 -30 72 -30l101 6l4 -8l-19 -94q-170 6 -260 6l-233 -25l12 95q106 20 133 61t27 160v90q0 113 -59 231l-185 375q-70 143 -98 174q-48 52 -160 62z" />
<glyph unicode="Z" horiz-adv-x="1163" d="M70 59l764 1155l-355 -12q-141 -6 -200.5 -66.5t-75.5 -215.5l-97 -9q33 211 37 400l21 18l358 -22l529 -15l22 -59q-391 -520 -790 -1151l415 14q106 2 172 84t99 256l96 10q-41 -222 -51 -419l-31 -33l-741 12l-144 -12z" />
<glyph unicode="[" horiz-adv-x="632" d="M197 -258q23 565 22 770l-22 776l376 23l9 -13l-13 -63l-233 -49v-1342l237 -49l9 -14l-13 -62z" />
<glyph unicode="\" horiz-adv-x="673" d="M76 1362l16 20h94l236 -919q80 -311 188 -672l-14 -16h-98q-86 328 -172 665z" />
<glyph unicode="]" horiz-adv-x="632" d="M51 -268l12 63l234 49v1342l-238 49l-8 14l12 62l373 -23q-23 -565 -22 -770l22 -776l-377 -23z" />
<glyph unicode="^" horiz-adv-x="1036" d="M115 154q86 225 166 411l176 416l96 4l22 -16q106 -256 173 -406l174 -385l-82 -61l-23 2q-88 203 -162 370l-143 345h-12l-123 -316q-69 -168 -150 -397l-102 14z" />
<glyph unicode="_" horiz-adv-x="937" d="M-12 -276l22 100q307 -2 490 -2q145 0 280 6q158 4 158 6l12 -20l-16 -105q-195 0 -559.5 -2t-374.5 -2z" />
<glyph unicode="`" d="M145 1374l78 84l21 4q160 -193 307 -352l-41 -39l-18 -4q-76 70 -162 140.5t-134 107.5l-49 37z" />
<glyph unicode="a" horiz-adv-x="954" d="M84 238q0 59 29.5 104t79.5 59l387 107l4 90q0 102 -47.5 159.5t-133.5 57.5q-129 -3 -245 -102l-11 6l-24 88q246 143 334 143q133 0 208.5 -69.5t75.5 -194.5q0 -31 -18 -218t-18 -253q0 -94 83 -94q65 0 123 51l29 -33q-8 -14 -23.5 -36.5t-62.5 -66.5t-92 -61 q-168 0 -182 166l-9 2q-159 -159 -224 -159h-1q-115 0 -188.5 71.5t-73.5 182.5zM240 260q0 -59 39.5 -98t101.5 -39q88 0 186 98l8 209l-276 -84q-59 -18 -59 -86z" />
<glyph unicode="b" horiz-adv-x="1040" d="M47 1393l8 67q63 8 139 23.5t120 25.5l44 11l13 -27q-31 -47 -47 -686q199 143 247 143q176 0 286 -121.5t110 -316.5q0 -223 -148.5 -380t-361.5 -157l-264 25l-19 16v1266q0 111 -76 111l-45 -7zM313 131q86 -43 201 -43q137 0 216 93t79 255q0 158 -79 266.5 t-191 108.5q-41 0 -104.5 -31.5t-115.5 -79.5z" />
<glyph unicode="c" horiz-adv-x="868" d="M74 428q0 221 136 371.5t337 150.5q131 0 239 -39l7 -14q-37 -123 -43 -283l-84 -6v64q0 76 -46.5 122t-121.5 46q-125 0 -192.5 -89t-67.5 -253q0 -178 74.5 -281.5t203.5 -103.5h3q113 0 229 67l12 -4l22 -63q-180 -137 -280 -138q-195 0 -311.5 123t-116.5 330z" />
<glyph unicode="d" horiz-adv-x="1099" d="M74 414q0 221 149.5 378.5t360.5 157.5q66 0 141 -8v340q0 111 -76 111l-51 -9l8 76q63 8 139 23.5t120 25.5l44 11l13 -27q-23 -35 -40.5 -432t-17.5 -846q0 -94 84 -94q65 0 123 51l29 -33q-8 -14 -24.5 -37.5t-63.5 -68.5t-90 -58q-160 0 -183 146l-14 6 q-213 -145 -256 -145q-176 0 -285.5 119.5t-109.5 312.5zM231 483q0 -156 78 -262t193 -106q43 0 99 26.5t90 54.5l34 27v561q-76 47 -199 47q-137 0 -216 -93t-79 -255z" />
<glyph unicode="e" horiz-adv-x="917" d="M74 428q0 211 135 366.5t317 155.5q305 0 305 -297l-12 -100l-26 -25h-566v-32q0 -172 83 -276.5t220 -104.5q126 0 252 63l13 -4l22 -59q-20 -16 -56 -39t-119 -62t-138 -39q-193 0 -311.5 125t-118.5 328zM236 604l370 19q31 4 41 14t10 41q0 82 -44 125t-126 43 q-96 0 -164.5 -65.5t-86.5 -176.5z" />
<glyph unicode="f" horiz-adv-x="675" d="M84 842l14 69l123 23v8q2 266 129 422t342 156q139 0 234 -39l4 -19q-33 -57 -64 -133l-22 -6q-102 76 -236 76q-229 0 -235 -379l-2 -100l282 6l6 -6l-20 -109q-127 6 -270 6l-9 -616q0 -113 105 -113l123 4l4 -8l-14 -88q-174 4 -254 4l-230 -8l10 80q117 14 117 121 v552q-2 49 -27.5 64.5t-101.5 19.5z" />
<glyph unicode="g" horiz-adv-x="1032" d="M106 174q29 29 72 61.5t72 51.5l29 18v8q-152 80 -152 273q0 145 114.5 254.5t266.5 109.5q41 0 108.5 -11t92.5 -11q104 12 282 61l6 -8l-22 -115q-90 -12 -176 -18l-8 -10q82 -92 81 -207q0 -154 -117.5 -259.5t-287.5 -105.5q-49 0 -119 17q-86 -47 -86 -90 q0 -92 246 -101q238 -12 337 -62t99 -157q0 -141 -156.5 -255t-351.5 -114q-145 0 -227 72t-82 201q67 90 203 184v12q-96 12 -160 69.5t-64 131.5zM281 621q0 -119 64.5 -192t170.5 -73q94 0 148.5 59.5t54.5 164.5q0 119 -65.5 192.5t-170.5 73.5q-94 0 -148 -61.5 t-54 -163.5zM287 -227q0 -78 59.5 -123t165.5 -45q119 0 210 61.5t91 140.5q0 59 -78 89t-321 63q-14 -10 -36 -28.5t-56.5 -67.5t-34.5 -90z" />
<glyph unicode="h" horiz-adv-x="1093" d="M51 1395l8 65q63 8 139 23.5t120 25.5l44 11l13 -27q-31 -47 -49 -702q232 159 306 159h1q133 0 206.5 -69.5t73.5 -194.5q0 -31 -16 -225.5t-16 -259.5q0 -115 71 -115l72 4l4 -8l-16 -88q-106 6 -183 6q-39 0 -91 -6t-86 -12l-34 -7l9 84q115 31 114 134l13 405 q0 102 -44 157.5t-126 55.5q-119 0 -260 -113q-6 -236 -7 -497q0 -63 16.5 -89t57.5 -26l72 4l4 -8l-18 -88q-111 6 -187 6l-203 -4l13 84q59 6 82.5 30.5t23.5 82.5v1089q0 106 -76 107h-43z" />
<glyph unicode="i" horiz-adv-x="577" d="M86 815l8 76q61 8 135 23.5t117 25.5l43 10l10 -24q-18 -43 -32.5 -263.5t-14.5 -461.5q0 -115 72 -115l72 4l4 -8l-17 -88q-106 6 -182 6q-39 0 -91 -6t-86 -12l-34 -7l8 84q115 31 115 134v520q0 110 -75 110h-1zM172 1337q0 51 35 86t86 35q43 0 71.5 -29.5 t28.5 -74.5q0 -51 -35 -86t-86 -35q-45 0 -72.5 28.5t-27.5 75.5z" />
<glyph unicode="j" horiz-adv-x="512" d="M31 -455l4 17q88 88 119.5 196.5t31.5 319.5v635q0 63 -17 86.5t-65 23.5l-55 -6l8 76q55 8 129 22.5t120 24.5l46 10l10 -24q-34 -57 -34 -906v-49q0 -147 -67.5 -268t-192.5 -197zM147 1337q0 51 35 86t86 35q43 0 72 -29.5t29 -74.5q0 -51 -35 -86t-86 -35 q-45 0 -73 28.5t-28 75.5z" />
<glyph unicode="k" horiz-adv-x="1017" d="M51 1384q0 12 4 37l4 39q63 8 139 23.5t120 25.5l44 11l13 -27q-23 -35 -41 -434.5t-17 -857.5q0 -63 16.5 -89t57.5 -26l72 4l4 -8l-18 -88q-111 6 -187 6l-203 -12l11 84q33 4 53 15t32.5 22.5t16.5 42t5 51t1 73.5v1006q0 111 -76 111zM369 487l4 29l250 229 q49 47 49 72q0 43 -113 43l-6 10l18 60q127 -4 201 -4l195 12l6 -10l-17 -64q-43 -12 -86 -36.5t-95 -68.5t-81.5 -70.5t-93.5 -90.5l-80 -80l215 -276q70 -90 127.5 -129t120.5 -39l6 -11l-12 -59q-121 -33 -151.5 -33t-71.5 21q-58 30 -144 153z" />
<glyph unicode="l" horiz-adv-x="499" d="M51 1384q0 12 4 37l4 39q63 8 139 23.5t120 25.5l44 11l13 -27q-23 -35 -41 -436.5t-17 -855.5q0 -61 16.5 -88t55.5 -27l72 4l4 -8l-16 -88q-106 6 -183 6q-39 0 -91 -6t-86 -12l-34 -7l8 84q35 10 57.5 24.5t35 27t16.5 45t5 50t1 70.5v1006q0 111 -76 111z" />
<glyph unicode="m" horiz-adv-x="1703" d="M80 825l6 68l287 59l12 -16q-18 -66 -23 -135l5 -6q228 155 300 155h1q98 0 165.5 -42t96.5 -120q229 162 309 162q129 0 205 -71.5t76 -192.5q0 -31 -14.5 -225.5t-14.5 -259.5q0 -63 16.5 -89t57.5 -26l71 4l4 -8l-18 -88q-111 6 -186 6l-203 -12l10 84q59 10 84 36.5 t25 84.5l8 405q0 102 -44 157.5t-126 55.5q-106 0 -248 -102l-22 -508q0 -115 71 -115l72 4l4 -8l-16 -88q-106 6 -183 6q-39 0 -91 -6t-86 -12l-34 -7l9 84q115 31 114 134l8 405q0 102 -44 157.5t-126 55.5q-111 0 -251 -106q-18 -424 -19 -504q0 -63 16.5 -89t57.5 -26 l72 4l4 -8l-19 -88q-111 6 -186 6l-203 -4l12 84q59 6 83 30.5t24 82.5v499q0 70 -22.5 97.5t-77.5 27.5h-23z" />
<glyph unicode="n" horiz-adv-x="1150" d="M80 825l6 68l287 59l12 -16q-18 -66 -23 -135l5 -6q232 155 300 155h1q129 0 204.5 -71.5t75.5 -192.5q0 -31 -14 -225.5t-14 -259.5q0 -115 71 -115l72 4l4 -8l-16 -88q-106 6 -183 6q-39 0 -91 -6t-86 -12l-34 -7l9 84q115 31 114 134l8 405q0 102 -44 157.5t-126 55.5 q-111 0 -251 -106q-18 -424 -19 -504q0 -63 16.5 -89t57.5 -26l72 4l4 -8l-19 -88q-111 6 -186 6l-203 -12l10 84q59 10 84 36.5t25 84.5v499q0 70 -22.5 97.5t-77.5 27.5h-23z" />
<glyph unicode="o" horiz-adv-x="1019" d="M74 430q0 219 137 369.5t338 150.5q176 0 286.5 -127t110.5 -327q0 -219 -137 -370t-338 -151q-176 0 -286.5 127t-110.5 328zM238 489q0 -184 80.5 -298.5t209.5 -114.5q115 0 182.5 93t67.5 253q0 184 -81 301t-210 117q-115 0 -182 -94.5t-67 -256.5z" />
<glyph unicode="p" horiz-adv-x="1081" d="M82 825l6 68l287 59l12 -16q-14 -57 -20 -111l8 -14q193 133 237 133q176 0 286 -119.5t110 -312.5q0 -221 -150.5 -379t-359.5 -158l-150 9q0 -35 1 -106t1 -105q0 -94 19.5 -128t76.5 -34q12 0 35 1t35 1l4 -6l-16 -78h-195l-217 -14l10 79q66 8 85.5 36t19.5 112 q0 31 2 162t2 178v610q0 70 -22.5 97.5t-77.5 27.5h-23zM350 127q92 -39 205 -39q137 0 216 93t79 255q0 156 -78 262.5t-192 106.5q-92 0 -213 -100q-17 -269 -17 -578z" />
<glyph unicode="q" horiz-adv-x="1056" d="M74 414q0 221 149.5 378.5t360.5 157.5q96 0 188 -18l113 47l16 -18q-39 -96 -39 -1178q0 -111 13.5 -141.5t60.5 -30.5l53 2l4 -4l-14 -80h-188l-220 -8l11 78q84 4 107.5 26.5t27.5 98.5l8 399q-213 -147 -256 -148q-176 0 -285.5 122t-109.5 317zM231 483 q0 -158 79 -266t192 -108q43 0 99 28.5t90 57.5l34 28v561q-76 47 -199 47q-137 0 -216 -93t-79 -255z" />
<glyph unicode="r" horiz-adv-x="784" d="M92 827l6 64q124 22 277 61l14 -12q-2 -12 -5 -33.5t-8 -78t-5 -99.5l8 -6q61 96 144 157.5t145 61.5l63 -8l6 -8q-29 -168 -32 -293l-80 -6q0 84 -11.5 111.5t-44.5 27.5q-45 0 -96 -38t-94 -101q-16 -373 -17 -418q0 -70 20.5 -94.5t78.5 -24.5l90 4l2 -8l-18 -90 q-129 4 -209 4l-215 -8l10 82q61 6 81.5 39.5t20.5 130.5v450q0 68 -18.5 96.5t-59.5 28.5l-43 -6z" />
<glyph unicode="s" horiz-adv-x="823" d="M100 33q18 102 25 274l72 10q0 -135 45 -190t153 -55q78 0 131.5 34.5t53.5 86t-48.5 93.5t-189.5 117q-117 59 -170 120t-53 134q0 125 107.5 209t269.5 84q49 0 100 -8t78 -16l26 -8l5 -11q-29 -115 -39 -250l-76 -6q4 41 4 60q0 74 -40 107.5t-128 33.5 q-70 0 -118 -33t-48 -80q0 -49 42 -92t136 -92q166 -88 226.5 -147.5t60.5 -137.5q0 -119 -112.5 -207t-262.5 -88q-66 0 -127 10.5t-89 21.5l-28 11z" />
<glyph unicode="t" horiz-adv-x="675" d="M43 842l10 61q133 65 254 187l41 -17q-8 -53 -16 -153l301 6l6 -6l-18 -109l-297 6q-14 -225 -15 -512q0 -104 36 -147t124 -43q31 0 65.5 9t54.5 18l19 10l21 -54q-158 -123 -207 -123q-139 0 -196.5 56.5t-57.5 191.5v504q0 55 -24.5 77.5t-92.5 24.5z" />
<glyph unicode="u" horiz-adv-x="1107" d="M57 813l9 76q127 20 292 61l13 -24q-20 -53 -37 -241.5t-17 -367.5q0 -200 162 -200h2q43 0 95.5 22.5t75 38t77.5 55.5v476q0 61 -22.5 85.5t-79.5 24.5l-49 -2l8 74q145 20 315 59l12 -24q-18 -47 -31.5 -256t-13.5 -455q0 -94 84 -94q65 0 123 51l29 -33 q-12 -18 -31.5 -45.5t-68 -73t-78.5 -45.5q-168 0 -183 166l-10 4q-221 -170 -284 -170q-131 0 -202 61.5t-71 176.5l8 498q0 110 -74 110h-1z" />
<glyph unicode="v" horiz-adv-x="911" d="M-20 860l12 68q123 -2 170 -2q55 0 116.5 4t95.5 7l34 3l4 -10l-13 -64q-70 -2 -95 -13t-25 -40l174 -647h8q39 94 84 203.5t70.5 172t49 122t34 92.5t10.5 47q0 27 -19.5 38t-68.5 11h-78l-8 12l10 64q113 -2 213 -2l168 2l-15 -76q-43 -6 -67.5 -35t-63.5 -119 l-297 -698l-110 -35q-190 608 -250 785q-35 98 -139 102z" />
<glyph unicode="w" horiz-adv-x="1443" d="M-8 860l12 68q119 -2 164 -2q55 0 114.5 4t92.5 7l33 3l4 -10l-13 -64q-68 -2 -92 -13t-24 -40l168 -647h8q41 102 91 229t79.5 202t46.5 120q-23 70 -54.5 102.5t-91.5 32.5l-4 8l13 68q119 -2 163 -2l240 10l4 -10l-12 -64q-70 -2 -93.5 -12t-23.5 -37l168 -647h8 q37 92 81 203.5t68.5 172t47 122t33 93.5t10.5 46q0 51 -84 51h-76l-8 12l10 64q104 -4 203 -4l168 2l-14 -76q-41 -4 -66 -34t-61 -120l-289 -698l-109 -35q-109 358 -184 604h-12l-228 -569l-110 -35q-184 608 -242 785q-35 100 -135 102z" />
<glyph unicode="x" horiz-adv-x="972" d="M16 860l13 70q141 -4 207 -4l208 8l5 -10l-13 -64q-92 0 -92 -39q0 -25 49 -96l113 -164l125 158q63 78 63 104.5t-88 26.5l-4 8l10 68h150l145 6l6 -10l-12 -66q-55 -18 -172 -154l-176 -206l188 -269q98 -143 207 -153l4 -8l-12 -70q-120 4 -186 4l-230 -12l-4 10 l12 63q94 2 95 43q0 27 -35 76l-150 209q-206 -251 -206 -285q0 -20 17 -26t73 -10l4 -9l-13 -67q-123 8 -170 8l-122 -6l-7 10l13 64q12 6 22 12t21.5 14t18.5 14.5t18.5 17.5t17.5 17.5t20.5 21.5t20.5 22.5t24.5 29t26.5 31.5l176 205l-155 221q-70 100 -110 133t-112 45 z" />
<glyph unicode="y" horiz-adv-x="913" d="M-18 860l12 68q123 -2 170 -2q53 0 114.5 4t96.5 7l35 3l4 -10l-13 -64q-70 -2 -95 -13t-25 -40q0 -72 182 -627h8q240 573 240 619q0 53 -78 53h-94l-4 8l12 68q106 -8 207 -8l174 2l-15 -76q-45 -8 -68.5 -31.5t-45.5 -85.5l-264 -622q-166 -381 -249 -495 q-82 -112 -208 -112h-4q-16 0 -53 48.5t-37 68.5l10 15q119 0 224.5 95t174.5 265q-129 406 -268 756q-47 96 -139 98z" />
<glyph unicode="z" horiz-adv-x="942" d="M74 47l557 801l-256 -12q-100 -6 -138 -44t-49 -141l-79 -12q20 166 22 297l12 10l263 -16l430 -10l16 -43q-328 -422 -586 -805l303 18q82 6 127 64.5t66 185.5l82 10q-35 -182 -35 -330l-33 -32l-575 18l-107 -10z" />
<glyph unicode="{" horiz-adv-x="632" d="M94 506l8 43q82 23 136.5 65.5t54.5 104.5q0 43 -42 176t-42 197q0 100 68.5 168.5t189.5 68.5l117 -12l6 -10l-17 -62q-59 10 -94 10q-63 0 -94 -39.5t-31 -101.5q0 -45 28 -179t28 -187q0 -156 -150 -205v-13q150 -55 150 -215q0 -55 -28 -192t-28 -182 q0 -61 31 -100.5t96 -39.5l103 13l6 -13l-17 -57q-49 -16 -110 -16q-117 0 -185.5 68.5t-68.5 168.5q0 66 42 195t42 166q0 135 -199 180z" />
<glyph unicode="|" horiz-adv-x="761" d="M311 -539q0 737 2 1104l2 1065l123 23l23 -13q-12 -705 -12 -1044l2 -1124l-121 -23z" />
<glyph unicode="}" horiz-adv-x="632" d="M43 -250l16 62q59 -10 95 -11q63 0 94 40t31 102q0 45 -28 179t-28 187q0 156 150 205v12q-150 55 -150 215q0 55 28 192.5t28 182.5q0 61 -31 100t-96 39l-103 -12l-6 12l16 58q49 16 111 16q117 0 185.5 -68.5t68.5 -168.5q0 -66 -42 -195t-42 -166q0 -135 199 -180 l-9 -43q-82 -23 -136 -66t-54 -104q0 -43 42 -176t42 -197q0 -100 -68.5 -168.5t-189.5 -68.5l-117 12z" />
<glyph unicode="~" horiz-adv-x="1036" d="M88 457v10l156 182l32 8q57 0 252 -44t240 -44q23 0 54.5 29t53.5 56l21 28h12l45 -43v-10l-155 -183l-33 -8q-57 0 -252 44t-240 44q-23 0 -54.5 -27.5t-52.5 -56.5l-22 -28h-12z" />
<glyph unicode="&#xa1;" horiz-adv-x="583" d="M180 -473l107 971l57 14l23 -16l16 -934l-14 -21l-170 -37zM215 823q0 53 36 90t93 37q55 0 85 -33.5t30 -82.5q0 -53 -35 -90t-92 -37q-55 0 -86 33.5t-31 82.5z" />
<glyph unicode="&#xa2;" horiz-adv-x="868" d="M74 428q0 205 119.5 351.5t302.5 166.5l36 393l54 9l12 -19l-37 -379q55 -2 111.5 -11t85.5 -18l28 -10l7 -14q-37 -123 -43 -283l-84 -6v64q0 61 -31 103t-84 56l-70 -716q12 -2 35 -2q115 -1 232 67l12 -4l22 -63q-180 -137 -280 -138q-23 0 -33 2l-27 -286l-53 -6 l-10 14l27 287q-154 29 -243 146.5t-89 295.5zM238 498q0 -141 48 -236.5t132 -130.5l67 709q-119 -4 -183 -93t-64 -249z" />
<glyph unicode="&#xa3;" horiz-adv-x="1075" d="M78 84q213 141 213 334v98q-2 47 -26.5 63.5t-102.5 20.5l-8 12l14 70l123 23v34q0 219 109.5 352.5t289.5 133.5q143 0 211 -31l10 -23l-47 -129l-39 -6q-125 68 -211 68q-178 0 -186 -254l-6 -160l330 6l6 -6l-21 -108q-162 6 -319 6l-4 -162q-10 -166 -131 -266 l112 22q61 0 182 -22.5t171 -22.5q139 0 153 154l37 -4q27 -61 27 -119q0 -82 -45.5 -137.5t-110.5 -55.5q-72 0 -252 46.5t-262 46.5q-90 0 -172 -62l-14 8z" />
<glyph unicode="&#xa5;" horiz-adv-x="1124" d="M63 961l15 73q119 -6 198 -6q43 0 105.5 4t101.5 7l39 3l10 -20l-6 -70q-82 -8 -105.5 -18.5t-23.5 -30.5q0 -23 25 -74h-2l164 -321l190 326q27 45 27 75.5t-109 40.5q0 2 -1 7.5t-1 7.5l10 75q127 -12 201 -12l164 6l10 -14l-12 -76q-55 -8 -88 -27.5t-49.5 -41 t-61.5 -89.5l-86 -139l236 4l12 -18l-6 -62h-289l-72 -116q-16 -35 -20 -80l375 8l12 -18l-6 -62h-383q0 -20 -1 -59t-1 -60q0 -57 13.5 -77.5t51.5 -20.5q6 0 18.5 1t20.5 1q55 2 56 2l4 -16l-19 -78q-147 4 -225 4l-205 -20l10 88q96 16 116 51t20 157v27q-61 0 -184.5 -1 t-184.5 -1l-10 14l10 60h362q-18 66 -43 108l-49 88q-45 0 -135 -1t-135 -1l-10 15l10 59h229q-18 35 -52 100.5t-47 87t-42 54.5t-62.5 44t-84.5 13z" />
<glyph unicode="&#xa8;" d="M143 1247q0 43 30 73t73 30q39 0 61.5 -26t22.5 -62q0 -43 -30 -73t-73 -30q-39 0 -61.5 26.5t-22.5 61.5zM483 1247q0 43 30 73t73 30q39 0 61.5 -26t22.5 -62q0 -43 -30 -73t-73 -30q-39 0 -61.5 26.5t-22.5 61.5z" />
<glyph unicode="&#xa9;" horiz-adv-x="1419" d="M86 600q0 258 182.5 441.5t440.5 183.5q260 0 442 -183.5t182 -441.5t-182 -441.5t-442 -183.5q-258 0 -440.5 183.5t-182.5 441.5zM172 600q0 -225 156.5 -384t380 -159t381 159t157.5 384t-157.5 384t-381 159t-380 -159t-156.5 -384zM387 588q0 156 97.5 258 t256.5 102l197 -24l4 -9q-20 -80 -27 -184l-67 -4q2 27 2 49q0 90 -131 90q-92 0 -144.5 -62.5t-52.5 -180.5q0 -131 50.5 -206t150.5 -75q70 0 107.5 37t54.5 117l65 4q-23 -100 -26 -178l-9 -15q-92 -39 -221 -39q-150 0 -228.5 90.5t-78.5 229.5z" />
<glyph unicode="&#xab;" horiz-adv-x="874" d="M41 434v31q196 186 352 354l45 -31l2 -20l-219 -305l219 -318l-2 -20l-45 -31q-70 72 -158 157t-141 134zM381 434v31q196 186 352 354l45 -31l2 -20l-219 -305l219 -318l-2 -20l-45 -31q-70 72 -158 157t-141 134z" />
<glyph unicode="&#xad;" horiz-adv-x="663" d="M74 446l12 107l356 41l133 18l15 -18l-10 -111l-492 -53z" />
<glyph unicode="&#xae;" horiz-adv-x="958" d="M61 1038q0 174 122 296t296 122t296 -122t122 -296t-122 -295.5t-296 -121.5t-296 121.5t-122 295.5zM133 1038.5q0 -143.5 101.5 -245t245 -101.5t244.5 101.5t101 245t-101 244.5t-244.5 101t-245 -101t-101.5 -244.5zM287 842l4 43q35 2 43 16t8 62v227q0 37 -25 37 h-22l-4 8l6 35q61 -2 88 -2h23l63 4q78 0 122 -30t44 -83q0 -84 -98 -129l59 -88q43 -66 84 -65l6 -9q0 -25 -16.5 -29.5t-63.5 -4.5q-41 0 -76 65l-59 113h-51q-2 -29 -2 -68t7 -48t42 -9l4 -8l-4 -35q-37 2 -66 2h-24zM424 1065q6 0 16.5 -1t22.5 -3t20 -2q63 25 64 86 q0 78 -107 78q-12 -1 -12 -17q-4 -94 -4 -141z" />
<glyph unicode="&#xb4;" d="M264 1110q66 72 142.5 160t120.5 141l44 53l21 -4l78 -84l-2 -22q-172 -131 -344 -287l-19 4z" />
<glyph unicode="&#xb8;" d="M203 -403.5q0 32.5 51 114.5h18q2 -55 33 -86t80 -31q41 0 69.5 22t28.5 56q0 54 -174 154l68 221h88l-51 -149q8 -6 35.5 -24.5t41 -28t35 -28t32.5 -32.5t20.5 -32.5t9.5 -37.5q0 -78 -79 -135t-167 -57q-51 0 -95 20.5t-44 53z" />
<glyph unicode="&#xbb;" horiz-adv-x="874" d="M94 145l219 306l-219 317l2 20l45 31q70 -72 158 -156.5t141 -134.5l54 -49v-30q-197 -187 -353 -355l-45 31zM434 145l219 306l-219 317l2 20l45 31q70 -72 158 -156.5t141 -134.5l54 -49v-30q-197 -187 -353 -355l-45 31z" />
<glyph unicode="&#xbf;" horiz-adv-x="737" d="M63 -158q0 66 18.5 118t60.5 96t73 69t96.5 68t91.5 61l7 18l-43 195l6 16l125 35l18 -8l49 -246l-6 -28l-244 -156q-117 -80 -116 -176q0 -236 415 -260l4 -23l-67 -108l-29 -9q-190 6 -324.5 103.5t-134.5 234.5zM315 823q0 53 36 90t93 37q55 0 85 -33.5t30 -82.5 q0 -53 -35 -90t-92 -37q-55 0 -86 33.5t-31 82.5z" />
<glyph unicode="&#xc1;" horiz-adv-x="1183" d="M-37 -6l17 96q57 6 91.5 40t67.5 118l400 1046l129 35h16q172 -637 326 -1098q25 -76 65.5 -106.5t130.5 -38.5l4 -8l-14 -84q-147 6 -217 6t-146.5 -5t-117.5 -10l-41 -5l-6 14l8 80q104 8 143 24.5t39 53.5q0 40 -18 98l-68 223q-49 2 -213 2q-98 0 -223 -16l-76 -213 q-18 -55 -18 -80q0 -84 123 -84h116l4 -8l-12 -88q-150 14 -285 14zM373 559h180q74 0 190 10l-161 537h-15zM473 1499l408 223l18 -12l33 -98l-8 -21q-207 -70 -422 -151l-17 10z" />
<glyph unicode="&#xc9;" horiz-adv-x="1210" d="M119 -20l12 94q92 12 126 48t34 124l2 860q0 66 -15.5 88.5t-60.5 22.5l-70 -5l-4 9l15 90q162 -6 284 -6q434 0 615 24l6 -12q-35 -152 -47 -340l-98 -8q4 59 4 88q0 100 -48.5 122.5t-265.5 22.5q-100 0 -120.5 -11t-22.5 -69l-16 -397q20 0 99 -1t111 -1l250 22l9 -10 l-29 -121q-176 6 -287 7q-76 0 -158 -15q-8 -295 -8 -391q0 -84 25.5 -103.5t136.5 -19.5q172 0 243.5 17.5t103.5 65.5t48 167l90 10l7 -10q-37 -170 -56 -344l-10 -12q-426 14 -621 14zM504 1499l407 223l19 -12l33 -98l-9 -21q-207 -70 -422 -151l-16 10z" />
<glyph unicode="&#xcd;" horiz-adv-x="739" d="M115 -25l12 95q96 18 130 54t34 122l2 860q0 66 -15.5 88.5t-60.5 22.5l-86 -5l-4 9l14 90q160 -6 244 -6l236 18l-9 -92q-86 -10 -114.5 -34t-32.5 -83q-29 -594 -29 -885q0 -84 18.5 -111.5t71.5 -27.5l109 6l4 -8l-18 -94q-172 6 -269 6zM246 1499l407 223l19 -12 l33 -98l-9 -21q-207 -70 -422 -151l-16 10z" />
<glyph unicode="&#xd1;" horiz-adv-x="1472" d="M111 1239l16 76q119 -10 176 -10l137 8q152 -236 324 -490t268 -390l96 -136h11v829q0 88 -68 88l-78 -2l-4 9l19 92q125 -8 194 -8l203 16l-10 -94q-72 -10 -105 -40t-35 -89l-28 -1151l-60 -29q-178 276 -368.5 559t-291.5 426l-101 144h-11l-10 -875q0 -45 14.5 -63.5 t49.5 -18.5l104 2l4 -8l-18 -92q-129 8 -217 8l-191 -16l10 94q125 14 127 129l27 895q0 63 -38 90t-140 37zM426 1475v10l156 162l32 8q35 0 154 -34t145 -34q20 0 53 23.5t55 46.5l21 22h13l45 -43v-10l-156 -162l-33 -8q-35 0 -153.5 34t-145.5 34q-23 0 -54.5 -22.5 t-52.5 -46.5l-22 -23h-12z" />
<glyph unicode="&#xd3;" horiz-adv-x="1417" d="M82 608q0 303 194.5 512t479.5 209q256 0 417.5 -176t161.5 -455q0 -305 -197.5 -514t-488.5 -209q-252 0 -409.5 176.5t-157.5 456.5zM258 674q0 -262 127 -428t328 -166q195 0 317.5 148.5t122.5 383.5q0 262 -130 428t-337 166q-190 0 -309 -147.5t-119 -384.5z M569 1499l408 223l18 -12l33 -98l-8 -21q-207 -70 -422 -151l-16 10z" />
<glyph unicode="&#xda;" horiz-adv-x="1394" d="M72 1221l14 90q154 -6 231 -6q39 0 93.5 5t88.5 9l33 4l-8 -92q-76 -10 -101.5 -33.5t-29.5 -83.5l-16 -602q0 -203 88 -311.5t254 -108.5q168 0 256 89t88 257l-12 668q-4 72 -17.5 91.5t-58.5 19.5l-88 -5l-4 9l14 90q154 -6 231 -6q39 0 89.5 5t79.5 9l30 4l-8 -92 q-90 -12 -115.5 -32.5t-25.5 -84.5v-688q0 -215 -133.5 -333t-374.5 -118q-215 0 -332 118t-117 335v678q0 66 -15.5 88.5t-60.5 22.5l-69 -5zM580 1499l407 223l19 -12l32 -98l-8 -21q-207 -70 -422 -151l-16 10z" />
<glyph unicode="&#xdc;" horiz-adv-x="1394" d="M72 1221l14 90q154 -6 231 -6q39 0 93.5 5t88.5 9l33 4l-8 -92q-76 -10 -101.5 -33.5t-29.5 -83.5l-16 -602q0 -203 88 -311.5t254 -108.5q168 0 256 89t88 257l-12 668q-4 72 -17.5 91.5t-58.5 19.5l-88 -5l-4 9l14 90q154 -6 231 -6q39 0 89.5 5t79.5 9l30 4l-8 -92 q-90 -12 -115.5 -32.5t-25.5 -84.5v-688q0 -215 -133.5 -333t-374.5 -118q-215 0 -332 118t-117 335v678q0 66 -15.5 88.5t-60.5 22.5l-69 -5zM446 1573q0 43 30 72.5t73 29.5q39 0 61.5 -25.5t22.5 -62.5q0 -43 -30 -72.5t-73 -29.5q-39 0 -61.5 26.5t-22.5 61.5zM786 1573 q0 43 30 72.5t73 29.5q39 0 61.5 -25.5t22.5 -62.5q0 -43 -30 -72.5t-73 -29.5q-39 0 -61.5 26.5t-22.5 61.5z" />
<glyph unicode="&#xe1;" horiz-adv-x="954" d="M84 238q0 59 29.5 104t79.5 59l387 107l4 90q0 102 -47.5 159.5t-133.5 57.5q-129 -3 -245 -102l-11 6l-24 88q246 143 334 143q133 0 208.5 -69.5t75.5 -194.5q0 -31 -18 -218t-18 -253q0 -94 83 -94q65 0 123 51l29 -33q-8 -14 -23.5 -36.5t-62.5 -66.5t-92 -61 q-168 0 -182 166l-9 2q-160 -160 -225 -159q-115 0 -188.5 71.5t-73.5 182.5zM240 260q0 -59 39.5 -98t101.5 -39q88 0 186 98l8 209l-276 -84q-59 -18 -59 -86zM305 1110q66 72 142.5 160t120.5 141l44 53l21 -4l78 -84l-2 -22q-172 -131 -344 -287l-19 4z" />
<glyph unicode="&#xe9;" horiz-adv-x="917" d="M74 428q0 211 135 366.5t317 155.5q305 0 305 -297l-12 -100l-26 -25h-566v-32q0 -172 83 -276.5t220 -104.5q126 0 252 63l13 -4l22 -59q-20 -16 -56 -39t-119 -62t-138 -39q-193 0 -311.5 125t-118.5 328zM236 604l370 19q31 4 41 14t10 41q0 82 -44 125t-126 43 q-96 0 -164.5 -65.5t-86.5 -176.5zM354 1110q66 72 142.5 160t120.5 141l45 53l20 -4l78 -84l-2 -22q-172 -131 -344 -287l-19 4z" />
<glyph unicode="&#xed;" horiz-adv-x="577" d="M86 815l8 76q61 8 135 23.5t117 25.5l43 10l10 -24q-18 -43 -32.5 -263.5t-14.5 -461.5q0 -115 72 -115l72 4l4 -8l-17 -88q-106 6 -182 6q-39 0 -91 -6t-86 -12l-34 -7l8 84q115 31 115 134v520q0 111 -76 110zM143 1110q66 72 142.5 160t121.5 141l44 53l20 -4l78 -84 l-2 -22q-172 -131 -344 -287l-19 4z" />
<glyph unicode="&#xf1;" horiz-adv-x="1150" d="M80 825l6 68l287 59l12 -16q-18 -66 -23 -135l5 -6q233 156 301 155q129 0 204.5 -71.5t75.5 -192.5q0 -31 -14 -225.5t-14 -259.5q0 -115 71 -115l72 4l4 -8l-16 -88q-106 6 -183 6q-39 0 -91 -6t-86 -12l-34 -7l9 84q115 31 114 134l8 405q0 102 -44 157.5t-126 55.5 q-111 0 -251 -106q-18 -424 -19 -504q0 -63 16.5 -89t57.5 -26l72 4l4 -8l-19 -88q-111 6 -186 6l-203 -12l10 84q59 10 84 36.5t25 84.5v499q0 70 -22.5 97.5t-77.5 27.5h-23zM252 1171v11l156 182l32 8q35 0 154 -33.5t145 -33.5q20 0 53 27.5t55 56.5l21 28h13l45 -43 v-10l-156 -182l-33 -8q-35 0 -153.5 33.5t-145.5 33.5q-23 0 -54.5 -28.5t-52.5 -56.5l-22 -28h-12z" />
<glyph unicode="&#xf3;" horiz-adv-x="1019" d="M74 430q0 219 137 369.5t338 150.5q176 0 286.5 -127t110.5 -327q0 -219 -137 -370t-338 -151q-176 0 -286.5 127t-110.5 328zM238 489q0 -184 80.5 -298.5t209.5 -114.5q115 0 182.5 93t67.5 253q0 184 -81 301t-210 117q-115 0 -182 -94.5t-67 -256.5zM373 1110 q66 72 142.5 160t120.5 141l44 53l20 -4l78 -84l-2 -22q-172 -131 -344 -287l-18 4z" />
<glyph unicode="&#xfa;" horiz-adv-x="1107" d="M57 813l9 76q127 20 292 61l13 -24q-20 -53 -37 -241.5t-17 -367.5q0 -201 164 -200q43 0 95.5 22.5t75 38t77.5 55.5v476q0 61 -22.5 85.5t-79.5 24.5l-49 -2l8 74q145 20 315 59l12 -24q-18 -47 -31.5 -256t-13.5 -455q0 -94 84 -94q65 0 123 51l29 -33 q-12 -18 -31.5 -45.5t-68 -73t-78.5 -45.5q-168 0 -183 166l-10 4q-221 -170 -284 -170q-131 0 -202 61.5t-71 176.5l8 498q0 111 -75 110zM383 1110q66 72 142.5 160t120.5 141l44 53l21 -4l77 -84l-2 -22q-172 -131 -344 -287l-18 4z" />
<glyph unicode="&#xfc;" horiz-adv-x="1107" d="M57 813l9 76q127 20 292 61l13 -24q-20 -53 -37 -241.5t-17 -367.5q0 -201 164 -200q43 0 95.5 22.5t75 38t77.5 55.5v476q0 61 -22.5 85.5t-79.5 24.5l-49 -2l8 74q145 20 315 59l12 -24q-18 -47 -31.5 -256t-13.5 -455q0 -94 84 -94q65 0 123 51l29 -33 q-12 -18 -31.5 -45.5t-68 -73t-78.5 -45.5q-168 0 -183 166l-10 4q-221 -170 -284 -170q-131 0 -202 61.5t-71 176.5l8 498q0 111 -75 110zM258 1247q0 43 29.5 73t72.5 30q39 0 61.5 -26t22.5 -62q0 -43 -29.5 -73t-72.5 -30q-39 0 -61.5 26.5t-22.5 61.5zM598 1247 q0 43 29.5 73t72.5 30q39 0 61.5 -26t22.5 -62q0 -43 -29.5 -73t-72.5 -30q-39 0 -61.5 26.5t-22.5 61.5z" />
<glyph unicode="&#x2c6;" d="M111 1126q59 61 129.5 140.5t111.5 126.5l41 47h29q150 -174 283 -314l-29 -45l-19 -2q-45 39 -249 199q-160 -119 -250 -199l-19 2z" />
<glyph unicode="&#x2da;" d="M242 1278q0 76 47 124t125 48t117.5 -45t39.5 -111q0 -74 -47 -127t-127 -53q-74 0 -114.5 45t-40.5 119zM307 1290q0 -49 33 -73.5t72 -24.5q90 0 90 80q0 45 -28 71.5t-77 26.5q-90 0 -90 -80z" />
<glyph unicode="&#x2dc;" d="M72 1171v11l155 182l33 8q35 0 153.5 -33.5t145.5 -33.5q20 0 53 27.5t55 56.5l21 28h12l45 -43v-10l-155 -182l-33 -8q-35 0 -153.5 33.5t-145.5 33.5q-23 0 -54.5 -28.5t-52.5 -56.5l-22 -28h-12z" />
<glyph unicode="&#x2000;" horiz-adv-x="861" />
<glyph unicode="&#x2001;" horiz-adv-x="1722" />
<glyph unicode="&#x2002;" horiz-adv-x="861" />
<glyph unicode="&#x2003;" horiz-adv-x="1722" />
<glyph unicode="&#x2004;" horiz-adv-x="574" />
<glyph unicode="&#x2005;" horiz-adv-x="430" />
<glyph unicode="&#x2006;" horiz-adv-x="287" />
<glyph unicode="&#x2007;" horiz-adv-x="287" />
<glyph unicode="&#x2008;" horiz-adv-x="215" />
<glyph unicode="&#x2009;" horiz-adv-x="344" />
<glyph unicode="&#x200a;" horiz-adv-x="95" />
<glyph unicode="&#x2010;" horiz-adv-x="663" d="M74 446l12 107l356 41l133 18l15 -18l-10 -111l-492 -53z" />
<glyph unicode="&#x2011;" horiz-adv-x="663" d="M74 446l12 107l356 41l133 18l15 -18l-10 -111l-492 -53z" />
<glyph unicode="&#x2012;" horiz-adv-x="663" d="M74 446l12 107l356 41l133 18l15 -18l-10 -111l-492 -53z" />
<glyph unicode="&#x2013;" horiz-adv-x="937" d="M-12 477l22 101q307 -2 490 -3q145 0 280 7q158 4 158 6l12 -21l-16 -104q-195 0 -559.5 -2t-374.5 -2z" />
<glyph unicode="&#x2014;" horiz-adv-x="1880" d="M-12 477l22 101q608 -2 961 -3q145 0 364 3.5t380 6.5t165 3l12 -21l-16 -104q-391 0 -1122 -2t-754 -2z" />
<glyph unicode="&#x2018;" horiz-adv-x="360" d="M57 1012q0 100 78 181t184 136l37 -31v-20q-63 -39 -105 -95.5t-42 -107.5q0 -78 82 -127l-4 -28q-70 -53 -119 -54q-47 0 -79 40t-32 106z" />
<glyph unicode="&#x2019;" horiz-adv-x="360" d="M4 897v21q63 39 105.5 95t42.5 107q0 78 -82 127l4 29q70 53 119 53q47 0 78.5 -40t31.5 -105q0 -100 -78 -181t-184 -137z" />
<glyph unicode="&#x201a;" horiz-adv-x="487" d="M31 -270q72 49 117 116.5t45 130.5q0 83 -66 144l4 29q70 53 119 53q45 0 74.5 -42t29.5 -118q0 -106 -86 -201.5t-200 -163.5l-37 31v21z" />
<glyph unicode="&#x201c;" horiz-adv-x="677" d="M57 1012q0 100 78 181t184 136l37 -31v-20q-63 -39 -105 -95.5t-42 -107.5q0 -78 82 -127l-4 -28q-70 -53 -119 -54q-47 0 -79 40t-32 106zM375 1012q0 100 77.5 181t184.5 136l37 -31v-20q-63 -39 -105.5 -95.5t-42.5 -107.5q0 -78 82 -127l-4 -28q-70 -53 -119 -54 q-47 0 -78.5 40t-31.5 106z" />
<glyph unicode="&#x201d;" horiz-adv-x="677" d="M4 897v21q63 39 105.5 95t42.5 107q0 78 -82 127l4 29q70 53 119 53q47 0 78.5 -40t31.5 -105q0 -100 -78 -181t-184 -137zM322 897v21q63 39 105 95t42 107q0 78 -82 127l4 29q70 53 119 53q47 0 79 -40t32 -105q0 -100 -78 -181t-185 -137z" />
<glyph unicode="&#x201e;" horiz-adv-x="813" d="M63 -209q63 39 105.5 95.5t42.5 107.5q0 78 -82 127l4 29q70 53 119 53q47 0 78.5 -40t31.5 -106q0 -100 -77.5 -181t-184.5 -136l-37 31v20zM381 -209q63 39 105 95.5t42 107.5q0 78 -82 127l5 29q70 53 118 53q47 0 79 -40t32 -106q0 -100 -78 -181t-184 -136l-37 31 v20z" />
<glyph unicode="&#x2026;" horiz-adv-x="1347" d="M123 92q0 53 35 90t92 37q55 0 86 -33.5t31 -83.5q0 -53 -36 -90t-93 -37q-55 0 -85 34t-30 83zM553 92q0 53 35 90t92 37q55 0 86 -33.5t31 -83.5q0 -53 -36 -90t-93 -37q-55 0 -85 34t-30 83zM983 92q0 53 35 90t92 37q55 0 86 -33.5t31 -83.5q0 -53 -36 -90t-93 -37 q-55 0 -85 34t-30 83z" />
<glyph unicode="&#x202f;" horiz-adv-x="344" />
<glyph unicode="&#x2039;" horiz-adv-x="534" d="M41 434v31q196 186 352 354l45 -31l2 -20l-219 -305l219 -318l-2 -20l-45 -31q-70 72 -158 157t-141 134z" />
<glyph unicode="&#x203a;" horiz-adv-x="534" d="M94 145l219 306l-219 317l2 20l45 31q70 -72 158 -156.5t141 -134.5l54 -49v-30q-197 -187 -353 -355l-45 31z" />
<glyph unicode="&#x205f;" horiz-adv-x="430" />
<glyph unicode="&#x20ac;" horiz-adv-x="1204" d="M25 362l10 60h153q-2 18 -2 55q0 59 9 107h-160l-10 14l10 59h178q55 174 204.5 277.5t356.5 103.5l299 -39l8 -12q-33 -123 -43 -278l-102 -7q4 41 4 80q0 143 -229 144q-131 0 -217 -71t-115 -198h4l375 9l12 -19l-6 -61l-395 -2q-2 -16 -2 -54q0 -66 8 -108h8l375 8 l12 -18l-6 -62l-373 -2q37 -125 124 -194.5t210 -69.5q211 0 266 242l103 8q-33 -152 -43 -273l-13 -16q-147 -63 -350 -63q-197 0 -324.5 97t-164.5 269h-164z" />
<glyph unicode="&#x2122;" horiz-adv-x="1153" d="M4 1143q8 88 10 164l9 8l79 -8h256l82 8l9 -8l10 -158l-66 -6q-10 72 -26.5 87t-77.5 17q-8 -135 -8 -325q0 -53 43 -54l45 2l2 -2l-6 -53q-98 4 -140 4l-135 -4l6 49q55 4 68.5 18.5t13.5 61.5v303q-66 -2 -83 -16t-25 -82zM487 813l7 51q43 2 49 54q33 246 32 305 q0 20 -12 26t-49 11l-6 6l8 43q72 -4 102 -4l84 4l107 -314h8q53 143 111 312h94l84 4l4 -4l-6 -45q-35 -2 -47.5 -11.5t-12.5 -29.5q0 -80 19 -283q4 -41 12 -55.5t29 -14.5l22 2l4 -4l-8 -49q-49 2 -82 2q-98 0 -116 -6l6 51q47 2 47 37l-19 258h-6q-65 -156 -131 -346 l-53 -6q-88 256 -129 352h-8q-16 -248 -17 -266q0 -25 25 -25h29l4 -4l-8 -47q-68 2 -95 2z" />
<glyph unicode="&#xe000;" horiz-adv-x="935" d="M0 935h935v-935h-935v935z" />
</font>
</defs>
</svg>
